2 сезон

iTunes

MVO

1

2 сезон

iTunes

iTunes

1 сезон

RePack

30

Ultimate

ВАЖНО

ИГРА 18+

pack

RePack

MK11
pack

Легкие деньги

RePack

jed

RePack

fifa19

RePack

RDR2

RePack

NEED FOR SPEED™ PAYBACK

4 сезон

9 сезон

Бесстыжие 9 сезон

Все сериалы

все сериалы на PB.wtf

RePack

FAR CRY 5

Anonymous, добрый вечер, мы не успеваем собрать деньги на оплату серверов за декабрь и январь, помогите нам пожалуйста в это трудное время. В качестве благодарности мы отключим Вам всю рекламу на сайте (укажите свой ник в строку Ваше имя)!

×
  
Magnet ссылка

Ночные охранники / The Night Watchmen (Митчелл Алтери) [2017 г., ужасы, комедия, HDRip, Любительский(многоголосый) Синема УС] pb.wtf

Ночные охранники через торрент pb.wtf

Размер: 1.37 GB | Добавлен: 3 года 8 мес. назад | Торрент скачан:360 раз
Скачать  

05-05-2017 11:33 Ночные охранники Скачать торрент  

Ночные охранники / The Night Watchmen
Год выпуска: 2017
Страна: США
Жанр: ужасы, комедия
Продолжительность: 01:20:43
Перевод: Любительский (многоголосый) Синема УС
Субтитры: нет

Режиссер: Митчелл Алтери

rating

В ролях: Кен Арнольд, Дэн ДеЛюка, Кевин Джиггеттс, Кара Луис, Макс Грэй Вилбур, Джеймс Римар, Мэтт Сервитто, Рэйн Прайор, Тиффани Шепис

Описание: Любимец Балтимора клоун Блимпо поехал на гастроли в Румынию и там умер при загадочных обстоятельствах. Домой он возвращается в гробу, который ошибочно доставляют не на тот адрес — в офисное здание. В эту ночную смену у дежурных охранников, помимо поедания пончиков, просмотра порно и игры в карты, будет ещё одно интересное занятие — им придётся отбиваться от орд кровожадных вампиров. Блимпо устроит веселье всему городу...

Доп. информация: Есть реклама.

Качество: HDRip
Формат: AVI
Видео кодек: XviD
Аудио кодек: AC3
Видео: 720x304 (2.37:1), 23.976 fps, XviD build 50 ~1966 kbps avg, 0.37 bit/pixel
Аудио#1: 48 kHz, AC3 Dolby Digital, 2/0 (L,R) ch, ~448 kbps




General
Complete name : G:\The.night.watchmen.2o17.P.HDRip.14OOMB_KOSHARA.avi
Format : AVI
Format/Info : Audio Video Interleave
File size : 1.37 GiB
Duration : 1h 20mn
Overall bit rate : 2 424 Kbps
Writing application : VirtualDubMod 1.5.10.2 (build 2540/release)
Writing library : VirtualDubMod build 2540/release

Video
ID : 0
Format : MPEG-4 Visual
Format profile : Advanced Simple@L5
Format settings, BVOP : 2
Format settings, QPel : No
Format settings, GMC : No warppoints
Format settings, Matrix : Default (MPEG)
Codec ID : XVID
Codec ID/Hint : XviD
Duration : 1h 20mn
Bit rate : 1 967 Kbps
Width : 720 pixels
Height : 304 pixels
Display aspect ratio : 2.35:1
Frame rate : 23.976 fps
Color space : YUV
Chroma subsampling : 4:2:0
Bit depth : 8 bits
Scan type : Progressive
Compression mode : Lossy
Bits/(Pixel*Frame) : 0.375
Stream size : 1.11 GiB (81%)
Writing library : XviD 1.2.1 (UTC 2008-12-04)

Audio
ID : 1
Format : AC-3
Format/Info : Audio Coding 3
Mode extension : CM (complete main)
Format settings, Endianness : Big
Codec ID : 2000
Duration : 1h 20mn
Bit rate mode : Constant
Bit rate : 448 Kbps
Channel(s) : 2 channels
Channel positions : Front: L R
Sampling rate : 48.0 KHz
Bit depth : 16 bits
Compression mode : Lossy
Stream size : 259 MiB (18%)
Alignment : Split accross interleaves
Interleave, duration : 42 ms (1.00 video frame)
Interleave, preload duration : 500 ms

pb.wtf



Скачать Ночные охранники через торрент http://img11.lostpic.net/2017/05/05/ad3ce410c1e117b1f83f5824caafd9e1.png Скачать фильм Ночные охранники через торрент бесплантно в хорошем качестве Описание: Любимец Балтимора клоун Блимпо поехал на гастроли в Румынию и там умер при загадочных обстоятельствах. Домой он возвращается в ... 8 10 9
Торрент: Зарегистрирован [2017-05-05 11:33] · скачан: 360 раз
Статус: T временная
Размер: 1.37 GB
Как cкачать? Как скачать Ночные охранники через торрент | UTorrent

28-11-2019 20:33  

Отключить всю рекламу на сайте

09-05-2017 13:58 Ночные охранники Скачать торрент  

полнохрень pb.wtf



    Дорогой пользователь! Огромная просьба, поблагодарите релизера, оцените раздачу и оставьте свои комментарий, если Вы скачали Ночные охранники через торрент бесплатно! Внесите свою лепту в развитие PiratBit!
    Комментировать посты могут только пользователи прошедшие не сложную регистрацию
    Показать сообщения:    

    Ночные охранники через торрент
    Скачать бесплатно Ночные охранники
    Ночные охранники скачать торрент
    Ночные охранники смотреть онлайн
    Cкачать фильм Ночные охранники бесплатно
    Ночные охранники скачать торрент в хорошем качестве
    Ночные охранники смотреть онлайн бесплатно в хорошем качестве


    Вы не можете начинать темы
    Вы не можете отвечать на сообщения
    Вы не можете редактировать свои сообщения
    Вы не можете удалять свои сообщения
    Вы не можете голосовать в опросах
    Вы не можете прикреплять файлы к сообщениям
    Вы можете скачивать файлы