2 сезон

iTunes

MVO

1

2 сезон

iTunes

iTunes

1 сезон

RePack

30

Новинка

ВАЖНО

ИГРА 18+

pack

RePack

MK11
pack

Легкие деньги

RePack

jed

RePack

fifa19

RePack

RDR2

RePack

NEED FOR SPEED™ PAYBACK

4 сезон

9 сезон

Бесстыжие 9 сезон

Все сериалы

все сериалы на PB.wtf

RePack

FAR CRY 5

Anonymous, доброй ночи, мы не успеваем собрать деньги на оплату серверов за декабрь и январь, помогите нам пожалуйста в это трудное время. В качестве благодарности мы отключим Вам всю рекламу на сайте (укажите свой ник в строку Ваше имя)!

×
  
Magnet ссылка

Три икса: Мировое господство / xXx: Return of Xander Cage (Ди Джей Карузо) [2017, боевик, триллер, приключения, HDRip-AVC] DUB [iTunes] pb.wtf

Три икса: Мировое господство через торрент pb.wtf

Размер: 1.45 GB | Добавлен: 3 года 8 мес. назад | Торрент скачан:887 раз
Скачать  

05-05-2017 12:41 Три икса: Мировое господство Скачать торрент  

Три икса: Мировое господство / xXx: Return of Xander Cage
Год выпуска: 2017
Страна: США
Жанр: боевик, триллер, приключения
Продолжительность: 01:47:08
Перевод: Дубляж - [iTunes]
Субтитры: Русские (srt), отдельно

Режиссер: Ди Джей Карузо

rating

В ролях:

Вин Дизель, Донни Йен, Дипика Падукон, Крис У, Руби Роуз, Тони Джа, Нина Добрев, Рори МакКанн, Тони Коллетт, Сэмюэл Л. Джексон

Описание:

Ксандер Кейдж спустя годы возвращается из добровольного изгнания и попадает в безумный водоворот событий. Он собирает команду безбашенных экстремалов, вместе с которыми ему предстоит найти мощнейшее секретное оружие — «Ящик Пандоры». Действовать нужно быстро: за разработкой охотятся опасные головорезы. Ставки в смертельной игре повышаются, когда выясняется, что мировые правительства вовлечены в кровавый заговор, а на кону — судьба мира.

Качество: HDRip-AVC
Формат: MKV
Видео кодек: H.264
Аудио кодек: AC3

Видео: 960x400 (2.40:1), 23.976 fps, AVC MPEG-4 (x264), High@L4.1, ~ 1565 kbps avg, 0.170 bit/pixel
Аудио#1: 48 kHz, AC3 Dolby Digital, 3/2 (L,C,R,l,r) + LFE ch, ~384 kbps avg
скриншот   скриншот   скриншот   скриншот  

General
Unique ID : 245098320016054188681882261412376609352 (0xB86438298945B528B554C42EC0420248)
Complete name : D:\Временная\xXx.Return.of.Xander.Cage.2017.HDRip-AVC.1.45Gb.MegaPeer.mkv
Format : Matroska
Format version : Version 2
File size : 1.45 GiB
Duration : 1 h 46 min
Overall bit rate : 1 946 kb/s
Encoded date : UTC 2017-05-04 15:20:08
Writing application : mkvmerge v6.1.0 ('Old Devil') built on Mar 4 2013 09:10:42
Writing library : libebml v1.3.0 + libmatroska v1.4.0

Video
ID : 1
Format : AVC
Format/Info : Advanced Video Codec
Format profile : High@L4.1
Format settings, CABAC : Yes
Format settings, ReFrames : 12 frames
Codec ID : V_MPEG4/ISO/AVC
Duration : 1 h 46 min
Bit rate : 1 565 kb/s
Width : 960 pixels
Height : 400 pixels
Display aspect ratio : 2.40:1
Frame rate mode : Constant
Frame rate : 23.976 (24000/1001) FPS
Color space : YUV
Chroma subsampling : 4:2:0
Bit depth : 8 bits
Scan type : Progressive
Bits/(Pixel*Frame) : 0.170
Stream size : 1.14 GiB (78%)
Writing library : x264 core 130 r2273 b3065e6
Encoding settings : cabac=1 / ref=12 / deblock=1:-1:-1 / analyse=0x3:0x113 / me=umh / subme=11 / psy=1 / psy_rd=1.00:0.10 / mixed_ref=1 / me_range=48 / chroma_me=1 / trellis=2 / 8x8dct=1 / cqm=0 / deadzone=21,11 / fast_pskip=0 / chroma_qp_offset=-3 / threads=12 / lookahead_threads=2 / sliced_threads=0 / nr=0 / decimate=0 / interlaced=0 / bluray_compat=0 / constrained_intra=0 / bframes=9 / b_pyramid=2 / b_adapt=2 / b_bias=0 / direct=3 / weightb=1 / open_gop=0 / weightp=2 / keyint=250 / keyint_min=23 / scenecut=40 / intra_refresh=0 / rc=2pass / mbtree=0 / bitrate=1565 / ratetol=1.0 / qcomp=0.60 / qpmin=0 / qpmax=69 / qpstep=4 / cplxblur=20.0 / qblur=0.5 / ip_ratio=1.40 / pb_ratio=1.30 / aq=1:1.00
Default : Yes
Forced : No

Audio
ID : 2
Format : AC-3
Format/Info : Audio Coding 3
Format settings, Endianness : Big
Codec ID : A_AC3
Duration : 1 h 46 min
Bit rate mode : Constant
Bit rate : 384 kb/s
Channel(s) : 6 channels
Channel positions : Front: L C R, Side: L R, LFE
Sampling rate : 48.0 kHz
Frame rate : 31.250 FPS (1536 spf)
Bit depth : 16 bits
Compression mode : Lossy
Stream size : 293 MiB (20%)
Service kind : Complete Main
Default : Yes
Forced : No

pb.wtf



Скачать Три икса: Мировое господство через торрент http://rudb.org/img/2016_12/i5843fce5a6109.jpg Скачать фильм Три икса: Мировое господство через торрент бесплантно в хорошем качестве Описание: Ксандер Кейдж спустя годы возвращается из добровольного изгнания и попадает в безумный водоворот событий. Он собирает команду ... 9.9 10 15
Info! Золотая раздача, скачанное не засчитывается.
Торрент: Зарегистрирован [2017-05-05 12:41] · скачан: 887 раз
Статус: √ проверено
Размер: 1.45 GB
Как cкачать? Как скачать Три икса: Мировое господство через торрент | UTorrent

% Раздел Тема Автор DL S | L
3D Видео (48-60 fps) [ 4.58 GB ] Три икса: Мировое господство в 3D / xXx: Return of Xander Cage in 3D [2017 BDRip 720p / 60 FPS ] Анаглиф от R.G. HD-Films slaventi-69 Скачать
1 | 0
Ultra HD (UHD: 2K, 4K, 8K) — видео сверхвысокой чёткости [ 60.25 GB ] Три икса: Мировое господство / xXx: Return of Xander Cage [2016 UHD Blu-ray 2160p] DUB + AVO sheker187 Скачать
1 | 0
Ultra HD (UHD: 2K, 4K, 8K) — видео сверхвысокой чёткости [ 55.73 GB ] Три икса: Мировое господство / xXx: Return of Xander Cage [2017 UHD BDRemux 2160p] AVO [Живов] +DUB [] bober100 Скачать
1 | 0
Фильмы [HD 720p, 1080p] (Хороший звук DUB, MVO) [ 10.46 GB ] Три икса: Мировое господство / xXx: Return of Xander Cage [2016 BDRip 1080p] - sheker187 Скачать
1 | 0
Фильмы без перевода [ 22.34 GB ] Три икса: Мировое господство / xXx: Return of Xander Cage [2017 BD Remux] [Оригинал-ENG] smaster Скачать
1 | 0
Фильмы 2017 [DVDrip, WEB-DLRip, HDrip] (DUB, MVO) [ 1.46 GB ] Три икса: Мировое господство / xXx: Return of Xander Cage [2017 BDRip] - [] Twi7ter Скачать
1 | 0
Фильмы 2017 [DVDrip, WEB-DLRip, HDrip] (DUB, MVO) [ 2.18 GB ] Три икса: Мировое господство / xXx: Return of Xander Cage [2017 BDRip] - [] Twi7ter Скачать
1 | 0

28-11-2019 20:33  

Отключить всю рекламу на сайте

06-05-2017 05:38 Три икса: Мировое господство Скачать торрент  

первая часть была прикольная. Надеюсь и эта такой будетpb.wtf



    Дорогой пользователь! Огромная просьба, поблагодарите релизера, оцените раздачу и оставьте свои комментарий, если Вы скачали Три икса: Мировое господство через торрент бесплатно! Внесите свою лепту в развитие PiratBit!
    Комментировать посты могут только пользователи прошедшие не сложную регистрацию
    Показать сообщения:    

    Три икса: Мировое господство через торрент
    Скачать бесплатно Три икса: Мировое господство
    Три икса: Мировое господство скачать торрент
    Три икса: Мировое господство смотреть онлайн
    Cкачать фильм Три икса: Мировое господство бесплатно
    Три икса: Мировое господство скачать торрент в хорошем качестве
    Три икса: Мировое господство смотреть онлайн бесплатно в хорошем качестве


    Вы не можете начинать темы
    Вы не можете отвечать на сообщения
    Вы не можете редактировать свои сообщения
    Вы не можете удалять свои сообщения
    Вы не можете голосовать в опросах
    Вы не можете прикреплять файлы к сообщениям
    Вы можете скачивать файлы