2 сезон

iTunes

1 сезон

1

iTunes

iTunes

iTunes

1 сезон

RePack

30

ИГРА 18+

pack

ВАЖНО

!!Акция!!

Alien_RageХит недели

RePack

MK11
pack

Забери бонус

RePack

jed

!!Акция!!

Alien_Rage

RePack

fifa19

RePack

Assassins Creed: Odyssey

RePack

NEED FOR SPEED™ PAYBACK

4 сезон

9 сезон

Бесстыжие 9 сезон

Все сериалы

все сериалы на PB.wtf

RePack

FAR CRY 5
  

Плохой кот Шерафеттин / Kötü Kedi Serafettin (Мехметt Куртулас / Mehmet Kurtulus; Айсо Юнал / Ayse Unal) [2016, Анимация, боевик, комедия, HDRip-AVC] [DVO] (datynet & Galina Vasyukova) pb.wtf

Плохой кот Шерафеттин через торрент pb.wtf

Размер: 1.26 GB | Добавлен: 3 года 5 мес. назад | Торрент скачан:796 раз
Скачать  

05-05-2017 19:27 Плохой кот Шерафеттин Скачать торрент  

Плохой кот Шерафеттин / Kötü Kedi Serafettin Год выпуска: 2016
Страна: Турция, Anima Istanbul, Kare Kare Film Yapim
Жанр: Анимация, боевик, комедия
Продолжительность: 01:21:55
Перевод: Любительский (двухголосый закадровый) datynet & Galina Vasyukova; перевод: Куценко
Cубтитры: нет

Режиссер: Мехметt Куртулас / Mehmet Kurtulus; Айсо Юнал / Ayse Unal

В ролях: Уур Юджел, Демет Эвгар, Окан Ялабык, Гувен Кирак, Гёкче Озиоль, Ахмет Мюмтаз Тайлан, Йекта Копан, Айсен Груда, Джезми Баскин

Описание: Сюжет мультфильма взят из популярных турецких комиксов конца 20 века. Главный герой, кот Шерафеттин, не очень похож на обычных любимчиков мультяшек. Этот котик очень смелый и ироничный, веселый и нелепый. Он просто обожает влипать в различные ситуации, а потом выпутываться из них. Находить проблемы для Шерафеттина – это любимое занятие. Причем он может создать неприятности, как для себя, так и для окружающих. Шерафеттин – самостоятельный кот, поэтому старается решить свои проблемы сам, часто из этого вырастает лишь еще больше неприятностей.

Доп. информация:



Сэмпл: http://multi-up.com/1152770

Качество видео: HDRip-AVC
Формат видео: MKV
Видео: 720x300 (2.40:1), 25fps, MPEG4 Video (H264) ~ 2 000 Kbps avg, 0.370 bit/pixel
Аудио: 48 kHz, MPEG Layer 3, 2 ch, ~192.00 kbps avg
General
Unique ID : 191854161280071219859625956301197672206 (0x9055C47567B0ACFF899EA62C4839FF0E)
Complete name : E:\Kotu.Kedi.Sefarettin.2016.DVDRip\Kotu.Kedi.Sefarettin.2016.mkv
Format : Matroska
Format version : Version 4 / Version 2
File size : 1.26 GiB
Duration : 1h 21mn
Overall bit rate : 2 193 Kbps
Movie name : Kotu.Kedi.Sefarettin.2016.DVDRip.x264.DD5.1.AC-3-SDDS
Encoded date : UTC 2017-05-05 10:40:06
Writing application : mkvmerge v9.6.0 ('Slave To Your Mind') 64bit
Writing library : libebml v1.3.4 + libmatroska v1.4.5

Video
ID : 1
Format : AVC
Format/Info : Advanced Video Codec
Format profile : High@L4.1
Format settings, CABAC : Yes
Format settings, ReFrames : 2 frames
Format settings, GOP : M=3, N=24
Codec ID : V_MPEG4/ISO/AVC
Duration : 1h 21mn
Bit rate : 2 000 Kbps
Width : 720 pixels
Height : 300 pixels
Display aspect ratio : 2.40:1
Frame rate mode : Constant
Frame rate : 25.000 fps
Color space : YUV
Chroma subsampling : 4:2:0
Bit depth : 8 bits
Scan type : Progressive
Bits/(Pixel*Frame) : 0.370
Stream size : 1.12 GiB (89%)
Default : Yes
Forced : No

Audio
ID : 2
Format : MPEG Audio
Format version : Version 1
Format profile : Layer 3
Codec ID : A_MPEG/L3
Codec ID/Hint : MP3
Duration : 1h 21mn
Bit rate mode : Constant
Bit rate : 192 Kbps
Channel(s) : 2 channels
Sampling rate : 48.0 KHz
Compression mode : Lossy
Stream size : 113 MiB (9%)
Default : Yes
Forced : No
pb.wtf



Скачать Плохой кот Шерафеттин через торрент http://s019.radikal.ru/i617/1705/78/5a1963119a5c.jpg Скачать фильм Плохой кот Шерафеттин через торрент бесплантно в хорошем качестве Описание: Сюжет мультфильма взят из популярных турецких комиксов конца 20 века. Главный герой, кот Шерафеттин, не очень похож на обычных ... 8.7 10 14
Торрент: Зарегистрирован [2017-05-05 19:27] · скачан: 796 раз
Статус: T временная
Размер: 1.26 GB
Как cкачать? Как скачать Плохой кот Шерафеттин через торрент | qTorrent

% Раздел Тема Автор DL S | L
T Зарубежные Мультфильмы (BDRip 1080p, 720p, Blu-ray, BD-Remux) [ 7.16 GB ] Плохой кот Шерафеттин / Kötü Kedi Serafettin [2016 Мультфильм BDRip 1080p Любительский datynet & Galina Vasyukova] Яйцеслав Скачать
1 | 0
T Релизы по Парсеру [Игры, Сериалы и Фильмы и другое...] [ 17.3 GB ] Плохой кот Шерафеттин / Kötü Kedi Serafettin [2016 Анимация Blu-Ray Remux 1080p] [DVO] killermax2013 Скачать
1 | 0


Последний раз редактировалось: killermax2013 (2017-05-05 19:38), всего редактировалось 1 раз

28-11-2019 20:33  

Отключить всю рекламу на сайте

05-05-2017 19:28 Плохой кот Шерафеттин Скачать торрент  

18+ !!!pb.wtf



06-05-2017 07:20 Плохой кот Шерафеттин Скачать торрент  

Дня доброго. Детям можно смотреть?pb.wtf



06-05-2017 08:23 Плохой кот Шерафеттин Скачать торрент  

Мульт угарный! Только для взрослых.pb.wtf



06-05-2017 08:44 Плохой кот Шерафеттин Скачать торрент  

him007 писал(а):

Дня доброго. Детям можно смотреть?

какие дети мульт для взрослых !pb.wtf



    Дорогой пользователь! Огромная просьба, поблагодарите релизера, оцените раздачу и оставьте свои комментарий, если Вы скачали Плохой кот Шерафеттин через торрент бесплатно! Внесите свою лепту в развитие PiratBit!
    Комментировать посты могут только пользователи прошедшие не сложную регистрацию
    Показать сообщения:    

    Плохой кот Шерафеттин через торрент
    Скачать бесплатно Плохой кот Шерафеттин
    Плохой кот Шерафеттин скачать торрент
    Плохой кот Шерафеттин смотреть онлайн
    Cкачать фильм Плохой кот Шерафеттин бесплатно
    Плохой кот Шерафеттин скачать торрент в хорошем качестве
    Плохой кот Шерафеттин смотреть онлайн бесплатно в хорошем качестве


    Вы не можете начинать темы
    Вы не можете отвечать на сообщения
    Вы не можете редактировать свои сообщения
    Вы не можете удалять свои сообщения
    Вы не можете голосовать в опросах
    Вы не можете прикреплять файлы к сообщениям
    Вы можете скачивать файлы