Всегда рабочее зеркало без VPN и Proxy просто перед .vidak.icu напиши любое слово или цифру, Пример http://1w5n.vidak.icu

MVO

2 сезон

2 сезон

1

1 сезон

iTunes

2 сезон

13

1 сезон

Deluxe

pack

Рекомендуем

Пиратка

30

ВАЖНО

RePack

MK11

RePack

jed

RePack

fifa19

RePack

RDR2

RePack

NEED FOR SPEED™ PAYBACK

Кинопоиск HD

6 сезон

 Острые козырьки 6 сезон

Все сериалы

все сериалы на PB.wtf

RePack

FAR CRY 5

Anonymous, нам критически не хватает 5601 руб. на оплату серверов и переферии за Апрель, помоги нам пожалуйста, вся надежда только на тебя. В благодарность мы отключим тебе всю рекламу на сайте!

×
  
Magnet ссылка

Комик / The Comedian (Тейлор Хэкфорд) [2016, комедия, WEB-DL 1080p] MVO [@MUZOBOZ@] pb.wtf

Комик через торрент pb.wtf

Размер: 4.51 GB | Добавлен: 5 лет назад | Торрент скачан:67 раз
Смотреть онлайн Комик | Скачать    Ребята, помогите собрать деньги на оплату серверов!!!

05-05-2017 21:41 Комик Скачать торрент  

Комик / The ComedianГод выпуска: 2016
Страна: США
Жанр: комедия
Продолжительность: 02:00:56
Перевод: Любительский (многоголосый) - [@MUZOBOZ@]
Субтитры: отсутствуют

Режиссер: Тейлор Хэкфорд

rating

В ролях:

Роберт Де Ниро, Лесли Манн, Харви Кейтель, Иди Фалько, Дэнни ДеВито, Пэтти ЛюПон, Чарльз Гродин, Клорис Личмен, Люси ДеВито

Описание:

История стареющего стэнд-ап комика...

Качество: WEB-DL 1080p
Формат: MKV
Видео кодек: H.264
Аудио кодек: AC3

Видео: 1920x1032 (1.85:1), 23.976 fps, MPEG-4 AVC ~4 957 kbps avg, 0.104 bit/pixel
Аудио#1: 48.0 kHz, AC3 Dolby Digital, 2/0 (L,R) ch, ~384 kbps

скриншот   скриншот   скриншот  

Общее
Уникальный идентификатор : 247122982076726449714048682885347299654 (0xB9EA27B578AD76BCA92805B0D14C5146)
Полное имя : C:\The.Comedian.2017.P.WEB-DL.1O8Op_KOSHARA.mkv
Формат : Matroska
Версия формата : Version 2
Размер файла : 4,51 Гбайт
Продолжительность : 2 ч. 0 м.
Режим общего битрейта : Переменный
Общий поток : 5343 Кбит/сек
Дата кодирования : UTC 2017-05-04 14:00:58
Программа кодирования : mkvmerge v8.3.0 ('Over the Horizon') 64bit
Библиотека кодирования : libebml v1.3.1 + libmatroska v1.4.2

Видео
Идентификатор : 1
Формат : AVC
Формат/Информация : Advanced Video Codec
Профиль формата : High@L4.1
Параметр CABAC формата : Да
Параметр ReFrames формата : 4 кадра
Идентификатор кодека : V_MPEG4/ISO/AVC
Продолжительность : 2 ч. 0 м.
Вид битрейта : Переменный
Битрейт : 4957 Кбит/сек
Номинальный битрейт : 5500 Кбит/сек
Максимальный битрейт : 5500 Кбит/сек
Ширина : 1920 пикселей
Высота : 1032 пикселя
Соотношение сторон : 1,85:1
Режим частоты кадров : Постоянный
Частота кадров : 23,976 (24000/1001) кадра/сек
Стандарт вещания : Component
Цветовое пространство : YUV
Субдискретизация насыщенности : 4:2:0
Битовая глубина : 8 бит
Тип развёртки : Прогрессивная
Бит/(Пиксели*Кадры) : 0.104
Размер потока : 4,19 Гбайт (93%)
Библиотека кодирования : x264 core 148
Настройки программы : cabac=1 / ref=4 / deblock=1:0:0 / analyse=0x3:0x3 / me=dia / subme=1 / psy=1 / psy_rd=1.00:0.00 / mixed_ref=0 / me_range=16 / chroma_me=1 / trellis=0 / 8x8dct=1 / cqm=1 / deadzone=21,11 / fast_pskip=1 / chroma_qp_offset=0 / threads=24 / lookahead_threads=4 / sliced_threads=0 / slices=1 / nr=0 / decimate=1 / interlaced=0 / minigop=0 / stitchable=1 / constrained_intra=0 / bframes=3 / b_pyramid=0 / b_adapt=0 / b_bias=0 / direct=1 / weightb=1 / open_gop=1 / weightp=0 / keyint=250 / keyint_min=23 / scenecut=40 / intra_refresh=0 / rc_lookahead=0 / rc=cbr / mbtree=0 / bitrate=5500 / ratetol=1.0 / qcomp=0.60 / qpmin=1 / qpmax=69 / qpstep=4 / vbv_maxrate=5500 / vbv_bufsize=5500 / nal_hrd=vbr / filler=0 / ip_ratio=1.40 / pb_ratio=1.30 / aq=1:1.00
Default : Да
Forced : Нет
Цветовой диапазон : Limited
Основные цвета : BT.709
Характеристики трансфера : BT.709
Коэффициенты матрицы : BT.709

Аудио
Идентификатор : 2
Формат : AC-3
Формат/Информация : Audio Coding 3
Расширение режима : CM (complete main)
Параметр Endianness формата : Big
Идентификатор кодека : A_AC3
Продолжительность : 2 ч. 0 м.
Вид битрейта : Постоянный
Битрейт : 384 Кбит/сек
Каналы : 2 канала
Расположение каналов : Front: L R
Частота : 48,0 КГц
Частота кадров : 31,250 кадров/сек (1536 spf)
Метод сжатия : С потерями
Размер потока : 332 Мбайт (7%)
Default : Да
Forced : Нет

pb.wtf



Скачать Комик через торрент http://s016.radikal.ru/i337/1705/20/399f7bdce332.png Скачать, смотреть онлайн Комик бесплантно в хорошем качестве Описание: История стареющего стэнд-ап ... 7.8 10 4
Торрент: Зарегистрирован [2017-05-05 21:41] · скачан: 67 раз
Статус: T временная
Размер: 4.51 GB
Как cкачать? Как скачать Комик через торрент | UTorrent

% Раздел Тема Автор DL S | L
T Фильмы (мультфильмы) cо спонсором показа (Новинки AVI/MKV) [ 3.68 GB ] Руководство по выживанию для комиков / The Comedian's Guide to Survival [2016 WEB-DL 720p] MVO ["Синема УС"] bober100 Скачать
1 | 0
T Фильмы (мультфильмы) cо спонсором показа (Новинки AVI/MKV) [ 1.37 GB ] Руководство по выживанию для комиков / The Comedian's Guide to Survival [2016 WEB-DLRip] MVO ["Синема УС"] bober100 Скачать
1 | 0
T Релизы по Парсеру [Игры, Сериалы и Фильмы и другое...] [ 3.79 GB ] Комик / The Comedian [2016 WEB-DL 720p] MVO [@MUZOBOZ@] bober100 Скачать
1 | 0
Фильмы без перевода [ 22.74 GB ] Комик / The Comedian [2016 BD Remux] [Оригинал-ENG] smaster Скачать
1 | 0
T Фильмы 2016 [DVDrip, WEB-DLRip, HDrip] (DUB, MVO) [ 1.37 GB ] Комик / The Comedian [2016 WEB-DLRip] MVO [@MUZOBOZ@] bober100 Скачать
1 | 0

28-11-2019 20:33  

Отключить всю рекламу на сайте

14-12-2017 18:18 Комик Скачать торрент  

    Дорогой пользователь! Огромная просьба, поблагодарите релизера, оцените раздачу и оставьте свои комментарий, если Вы скачали Комик через торрент бесплатно!
    Комментировать посты могут только пользователи прошедшие не сложную регистрацию
    Показать сообщения:    

    Комик через торрент
    Скачать бесплатно Комик
    Комик скачать торрент
    Комик смотреть онлайн
    Cкачать фильм Комик бесплатно
    Комик скачать торрент в хорошем качестве
    Комик смотреть онлайн бесплатно в хорошем качестве


    Вы не можете начинать темы
    Вы не можете отвечать на сообщения
    Вы не можете редактировать свои сообщения
    Вы не можете удалять свои сообщения
    Вы не можете голосовать в опросах
    Вы не можете прикреплять файлы к сообщениям
    Вы можете скачивать файлы