Ссылка на приватное зеркало нашего сайта всего за 1$. Внимание количество ограничено!!!

2 сезон

iTunes

1 сезон

1

iTunes

iTunes

iTunes

1 сезон

RePack

30

ИГРА 18+

pack

ВАЖНО

!!Акция!!

Alien_RageХит недели

RePack

MK11
pack

Забери бонус

RePack

jed

!!Акция!!

Alien_Rage

RePack

fifa19

RePack

Assassins Creed: Odyssey

RePack

NEED FOR SPEED™ PAYBACK

4 сезон

9 сезон

Бесстыжие 9 сезон

Все сериалы

все сериалы на PB.wtf

RePack

FAR CRY 5
  

Без тормозов / À fond (Николас Бенаму) [2016, комедия, BDRip 720p] DUB [iTunes] pb.wtf

Без тормозов через торрент pb.wtf

Размер: 5.03 GB | Добавлен: 3 года 5 мес. назад | Торрент скачан:367 раз
Скачать  

06-05-2017 05:07 Без тормозов Скачать торрент  

Без тормозов / À fondГод выпуска: 2016
Страна: Франция, Македония
Жанр: комедия
Продолжительность: 01:31:14
Перевод: Дубляж - [iTunes]
Субтитры: отсутствуют

Режиссер: Николас Бенаму

rating

В ролях:

Хосе Гарсия, Андре Дюссолье, Каролин Виньо, Жозефин Каллиз, Стилан Лекай, Шарлотта Габрис, Венсан Дезанья, Флоренс Форести, Жером Коммандёр, Владимир Хубар

Описание:

Взяв напрокат самый навороченный семейный автомобиль, глава семейства отправляется в долгожданный отпуск со своей женой, детьми и отцом. Но когда новомодный круиз-контроль вдруг полностью отключает тормоза, каникулы перестают быть томными. Пристегните ремни. Вас ждет очень веселая поездочка!

Качество: BDRip 720p
Формат: MKV
Видео кодек: H.264
Аудио кодек: AC3/DTS

Видео: 1280x534p (2.40:1), 23.976 fps, AVC MPEG-4 (x264), High@L4.1, ~6000 kbps avg, 0.366 bit/pixel
Аудио#1: Русский: 48 kHz/16 бит, AC3 Dolby Digital, 3/2 (L,C,R,l,r) + LFE ch, ~384 kbps avg [Профессиональный (полное дублирование), iTunes]
Аудио#2: Французкий: 48 kHz/24 бит, DTS, 3/2 (L,C,R,l,r) + LFE ch, ~1510 kbps avg [Оригинал]
скриншот   скриншот   скриншот   скриншот   скриншот  

General
Unique ID : 224646152430612063399457051878648520168 (0xA901467292C28373BE53C6AB59011DE8)
Complete name : F:VideoA.Fond.BDRip.720p.ExKinoRay.mkv
Format : Matroska
Format version : Version 4 / Version 2
File size : 5.03 GiB
Duration : 1 h 31 min
Overall bit rate : 7 891 kb/s
Encoded date : UTC 2017-05-05 02:19:12
Writing application : mkvmerge v11.0.0 ('Alive') 64bit
Writing library : libebml v1.3.4 + libmatroska v1.4.5

Video
ID : 1
Format : AVC
Format/Info : Advanced Video Codec
Format profile : High@L4.1
Format settings, CABAC : Yes
Format settings, ReFrames : 12 frames
Codec ID : V_MPEG4/ISO/AVC
Duration : 1 h 31 min
Bit rate : 6 000 kb/s
Width : 1 280 pixels
Height : 534 pixels
Display aspect ratio : 2.40:1
Frame rate mode : Constant
Frame rate : 23.976 FPS
Color space : YUV
Chroma subsampling : 4:2:0
Bit depth : 8 bits
Scan type : Progressive
Bits/(Pixel*Frame) : 0.366
Stream size : 3.82 GiB (76%)
Writing library : x264 core 146 r2538 121396c
Encoding settings : cabac=1 / ref=12 / deblock=1:-3:-3 / analyse=0x3:0x133 / me=umh / subme=11 / psy=1 / psy_rd=1.05:0.05 / mixed_ref=1 / me_range=32 / chroma_me=1 / trellis=2 / 8x8dct=1 / cqm=0 / deadzone=21,11 / fast_pskip=0 / chroma_qp_offset=-3 / threads=6 / lookahead_threads=1 / sliced_threads=0 / nr=0 / decimate=0 / interlaced=0 / bluray_compat=0 / constrained_intra=0 / bframes=8 / b_pyramid=2 / b_adapt=2 / b_bias=0 / direct=3 / weightb=1 / open_gop=0 / weightp=2 / keyint=240 / keyint_min=23 / scenecut=40 / intra_refresh=0 / rc_lookahead=50 / rc=2pass / mbtree=0 / bitrate=6000 / ratetol=1.0 / qcomp=0.60 / qpmin=0 / qpmax=69 / qpstep=4 / cplxblur=20.0 / qblur=0.5 / vbv_maxrate=50000 / vbv_bufsize=62500 / nal_hrd=none / filler=0 / ip_ratio=1.40 / pb_ratio=1.30 / aq=1:0.80
Language : English
Default : Yes
Forced : No

Audio #1
ID : 2
Format : AC-3
Format/Info : Audio Coding 3
Format settings, Endianness : Big
Codec ID : A_AC3
Duration : 1 h 31 min
Bit rate mode : Constant
Bit rate : 384 kb/s
Channel(s) : 6 channels
Channel positions : Front: L C R, Side: L R, LFE
Sampling rate : 48.0 kHz
Frame rate : 31.250 FPS (1536 spf)
Bit depth : 16 bits
Compression mode : Lossy
Stream size : 251 MiB (5%)
Title : iTunes
Language : Russian
Service kind : Complete Main
Default : Yes
Forced : No

Audio #2
ID : 3
Format : DTS
Format/Info : Digital Theater Systems
Mode : 16
Format settings, Endianness : Big
Codec ID : A_DTS
Duration : 1 h 31 min
Bit rate mode : Constant
Bit rate : 1 509 kb/s
Channel(s) : 6 channels
Channel positions : Front: L C R, Side: L R, LFE
Sampling rate : 48.0 kHz
Frame rate : 93.750 FPS (512 spf)
Bit depth : 24 bits
Compression mode : Lossy
Stream size : 985 MiB (19%)
Title : Original
Language : French
Default : No
Forced : No

Menu
00:00:00.000 : en:00:00:00.000
00:10:33.341 : en:00:10:33.341
00:18:38.159 : en:00:18:38.159
00:26:01.560 : en:00:26:01.560
00:33:35.222 : en:00:33:35.222
00:39:50.680 : en:00:39:50.680
00:49:01.438 : en:00:49:01.438
00:56:54.119 : en:00:56:54.119
01:04:18.396 : en:01:04:18.396
01:11:32.205 : en:01:11:32.205
01:19:00.069 : en:01:19:00.069
01:25:49.394 : en:01:25:49.394

pb.wtf



Скачать Без тормозов через торрент http://s009.radikal.ru/i307/1705/e5/567bc105b224.jpg Скачать фильм Без тормозов через торрент бесплантно в хорошем качестве Описание: Взяв напрокат самый навороченный семейный автомобиль, глава семейства отправляется в долгожданный отпуск со своей женой, детьми и ... 9.8 10 9
Торрент: Зарегистрирован [2017-05-06 05:07] · скачан: 367 раз
Статус: √ проверено
Размер: 5.03 GB
Как cкачать? Как скачать Без тормозов через торрент | qTorrent

% Раздел Тема Автор DL S | L
Фильмы 2016 [DVDrip, WEB-DLRip, HDrip] (DUB, MVO) [ 1.86 GB ] Без тормозов / À fond [2016 BDRip-AVC] bober100 Скачать
1 | 0
Фильмы [HD 720p, 1080p] (Хороший звук DUB, MVO) [ 10.06 GB ] Без тормозов / À fond [2016 BDRip 1080p] bober100 Скачать
1 | 0
Фильмы 2016 [DVDrip, WEB-DLRip, HDrip] (DUB, MVO) [ 1.42 GB ] Без тормозов / À fond [2016 BDRip] Twi7ter Скачать
3 | 0
Фильмы (Blu-ray, BD-Remux, HDDVD) [ 26.97 GB ] Без тормозов / À fond [2016 BD Remux ] Бумер Скачать
1 | 0
Фильмы 2016 [DVDrip, WEB-DLRip, HDrip] (DUB, MVO) [ 1.37 GB ] Без тормозов / À fond [2016 HDRip] killermax2013 Скачать
1 | 0

28-11-2019 20:33  

Отключить всю рекламу на сайте

18-05-2017 14:32 Без тормозов Скачать торрент  

Блин, не ждал ничего особенного, в итоге с женой давно так не ухахатывались, фильм бомба!!!pb.wtf



    Дорогой пользователь! Огромная просьба, поблагодарите релизера, оцените раздачу и оставьте свои комментарий, если Вы скачали Без тормозов через торрент бесплатно! Внесите свою лепту в развитие PiratBit!
    Комментировать посты могут только пользователи прошедшие не сложную регистрацию
    Показать сообщения:    

    Без тормозов через торрент
    Скачать бесплатно Без тормозов
    Без тормозов скачать торрент
    Без тормозов смотреть онлайн
    Cкачать фильм Без тормозов бесплатно
    Без тормозов скачать торрент в хорошем качестве
    Без тормозов смотреть онлайн бесплатно в хорошем качестве


    Вы не можете начинать темы
    Вы не можете отвечать на сообщения
    Вы не можете редактировать свои сообщения
    Вы не можете удалять свои сообщения
    Вы не можете голосовать в опросах
    Вы не можете прикреплять файлы к сообщениям
    Вы можете скачивать файлы