Ссылка на приватное зеркало нашего сайта всего за 1$. Внимание количество ограничено!!!

2 сезон

iTunes

1 сезон

1

2 сезон

2 сезон

iTunes

1 сезон

RePack

30

Ultimate

ВАЖНО

ИГРА 18+

pack

RePack

MK11
pack

Забери бонус

RePack

jed

!!Акция!!

Alien_Rage

RePack

fifa19

RePack

Assassins Creed: Odyssey

RePack

NEED FOR SPEED™ PAYBACK

4 сезон

9 сезон

Бесстыжие 9 сезон

Все сериалы

все сериалы на PB.wtf

RePack

FAR CRY 5
  

Людоед / Ravenous (Антония Бёрд) [1999 г., триллер, WEB-DL 720p] MVO + AVO + Original pb.wtf

Людоед через торрент pb.wtf

Размер: 3.62 GB | Добавлен: 3 года 6 мес. назад | Торрент скачан:118 раз
Скачать  

06-05-2017 07:09 Людоед Скачать торрент  

Людоед / Ravenous
Год выпуска: 1999
Страна: Чехия, Великобритания, США
Жанр: триллер
Продолжительность: 01:40:46
Перевод: профессиональный (многоголосый), авторский (Гоблин aka Д.Пучков)
Субтитры: отсутствуют

Режиссер: Антония Бёрд

Бюджет: $12 000 000

rating

В ролях: Гай Пирс, Роберт Карлайл, Дэвид Аркетт, Джереми Дэвис, Джеффри Джонс, Джон Спенсер, Стивен Спинелла, Нил МакДонаф, Джозеф Раннингфокс, Билл Брочтруп

Описание: Действие фильма происходит в 1847 году, в период войны Америки с Мексикой. Капитана Джона Бойда чествуют и награждают различными медалями, однако он не рад этим обстоятельствам. Причиной его чествования стал захват ставки противника в одиночку, но только он один знает все обстоятельства столь смелого поступка — он просто струсил, бросил оружие и притворился мёртвым. Так он пролежал длительное время среди мёртвых товарищей, а впоследствии в состоянии аффекта поубивал всех неприятелей. Однако продвижения по службе Джон не получил, вместо этого его направляют в одинокий форт в горах Калифорнии. Через некоторое время в форт приходит оборванный и изголодавшийся мужчина по имени Калхун. Из его истории становится ясно, что он был членом каравана, который вёл проводник. Проводник заблудился и люди, в связи с наступившей зимой, поселились в пещере. Однако запасов еды было мало и в тот момент, когда они кончились люди начали поедать друг друга. Калхуну удалось бежать.

Качество: WEB-DL 720p
Формат: MKV
Видео кодек: H.264
Аудио кодек: AC3
Видео: AVC, 1280x542 (2.35:1), 23.976 fps ~ 3830 Kbps
Аудио#1: 48 KHz, 6 ch ~ 448 Kb/s (профессиональный)
Аудио#2: 48 KHz, 6 ch ~ 384 Kb/s (Гоблин)
Аудио#3: 48 KHz, 6 ch ~ 384 Kb/s (английский)
Общее
Уникальный идентификатор : 242651223211177786244450043919047825915 (0xB68CECF986937CFD89840E6BB3BB99FB)
Полное имя : Q:\TorF\Ravenous.1999.720p.WEB-DL.mkv
Формат : Matroska
Версия формата : Version 4 / Version 2
Размер файла : 3,62 Гбайт
Продолжительность : 1 ч. 40 м.
Общий поток : 5148 Кбит/сек
Дата кодирования : UTC 2013-02-13 20:13:21
Программа кодирования : mkvmerge v6.0.0 ('Coming Up For Air') built on Jan 20 2013 09:52:00
Библиотека кодирования : libebml v1.3.0 + libmatroska v1.4.0

Видео
Идентификатор : 1
Формат : AVC
Формат/Информация : Advanced Video Codec
Профиль формата : Main@L3.1
Параметр CABAC формата : Нет
Параметр ReFrames формата : 2 кадра
Идентификатор кодека : V_MPEG4/ISO/AVC
Продолжительность : 1 ч. 40 м.
Битрейт : 3830 Кбит/сек
Ширина : 1280 пикселей
Высота : 542 пикселя
Соотношение сторон : 2,35:1
Частота кадров : 23,976 кадра/сек
Цветовое пространство : YUV
Субдискретизация насыщенности : 4:2:0
Битовая глубина : 8 бит
Тип развёртки : Прогрессивная
Бит/(Пиксели*Кадры) : 0.230
Размер потока : 2,70 Гбайт (74%)
Язык : English
Default : Да
Forced : Нет
Основные цвета : BT.709-5, BT.1361, IEC 61966-2-4, SMPTE RP177
Характеристики трансфера : BT.709-5, BT.1361
Коэффициенты матрицы : BT.709-5, BT.1361, IEC 61966-2-4 709, SMPTE RP177

Аудио #1
Идентификатор : 2
Формат : AC-3
Формат/Информация : Audio Coding 3
Расширение режима : CM (complete main)
Идентификатор кодека : A_AC3
Продолжительность : 1 ч. 40 м.
Вид битрейта : Постоянный
Битрейт : 448 Кбит/сек
Каналы : 6 каналов
Расположение каналов : Front: L C R, Side: L R, LFE
Частота : 48,0 КГц
Битовая глубина : 16 бит
Метод сжатия : С потерями
Размер потока : 323 Мбайт (9%)
Заголовок : AC3 6ch MVO
Язык : Russian
Default : Да
Forced : Нет

Аудио #2
Идентификатор : 3
Формат : AC-3
Формат/Информация : Audio Coding 3
Расширение режима : CM (complete main)
Идентификатор кодека : A_AC3
Продолжительность : 1 ч. 40 м.
Вид битрейта : Постоянный
Битрейт : 384 Кбит/сек
Каналы : 6 каналов
Расположение каналов : Front: L C R, Side: L R, LFE
Частота : 48,0 КГц
Битовая глубина : 16 бит
Метод сжатия : С потерями
Размер потока : 277 Мбайт (7%)
Заголовок : AC3 6ch Goblin
Язык : Russian
Default : Нет
Forced : Нет

Аудио #3
Идентификатор : 4
Формат : AC-3
Формат/Информация : Audio Coding 3
Расширение режима : CM (complete main)
Идентификатор кодека : A_AC3
Продолжительность : 1 ч. 40 м.
Вид битрейта : Постоянный
Битрейт : 384 Кбит/сек
Каналы : 6 каналов
Расположение каналов : Front: L C R, Side: L R, LFE
Частота : 48,0 КГц
Битовая глубина : 16 бит
Метод сжатия : С потерями
Размер потока : 277 Мбайт (7%)
Заголовок : AC3 6ch
Язык : English
Default : Нет
Forced : Нет

Меню
00:00:00.000 : en:Reluctant Hero (Main Titles)
00:06:19.000 : en:Welcome to Fort Spencer
00:09:15.000 : en:I Was Buried
00:13:50.000 : en:The Stranger
00:16:15.000 : en:Colqhoun's Story
00:22:51.000 : en:Weendigo
00:24:21.000 : en:The Rescue Party
00:27:11.000 : en:A Certain Verility
00:29:54.000 : en:He Was Licking Me
00:31:47.000 : en:The Cave
00:40:03.000 : en:The Hunt
00:45:43.000 : en:Hunger Strikes
00:52:02.000 : en:Boyd Reborn
00:54:18.000 : en:You Give Yourself
00:57:06.000 : en:The New Colonel
01:01:49.000 : en:Cannibal Fantasy
01:03:07.000 : en:Checkmate
01:04:21.000 : en:Black Thoughts
01:09:42.000 : en:Martha, Cleaves & The Horses
01:12:59.000 : en:Ives' Accomplice
01:16:47.000 : en:Manifest Destiny
01:19:57.000 : en:Eat to Live . . .
01:21:56.000 : en:Change of Hart
01:26:45.000 : en:Forks and Knives
01:32:35.000 : en:The Circle Closes / A Hero At Last
01:37:09.000 : en:End Titles

pb.wtf



Скачать Людоед через торрент http://pic.kartinco.top/images/11/gy14l.jpg Скачать фильм Людоед через торрент бесплантно в хорошем качестве Описание: Действие фильма происходит в 1847 году, в период войны Америки с Мексикой. Капитана Джона Бойда чествуют и награждают различными ... 10 10 4
Info! Золотая раздача, скачанное не засчитывается.
Торрент: Зарегистрирован [2017-05-06 07:09] · скачан: 118 раз
Статус: √ проверено
Размер: 3.62 GB
Как cкачать? Как скачать Людоед через торрент | qTorrent

28-11-2019 20:33  

Отключить всю рекламу на сайте

07-05-2017 21:43 Людоед Скачать торрент  

Фильм неплохой. Качество съемки, сюжет, атмосфера - все есть))) Смотрел лет 5 назад, пересмотрю на досуге как-нибудь.pb.wtf



    Дорогой пользователь! Огромная просьба, поблагодарите релизера, оцените раздачу и оставьте свои комментарий, если Вы скачали Людоед через торрент бесплатно! Внесите свою лепту в развитие PiratBit!
    Комментировать посты могут только пользователи прошедшие не сложную регистрацию
    Показать сообщения:    

    Людоед через торрент
    Скачать бесплатно Людоед
    Людоед скачать торрент
    Людоед смотреть онлайн
    Cкачать фильм Людоед бесплатно
    Людоед скачать торрент в хорошем качестве
    Людоед смотреть онлайн бесплатно в хорошем качестве


    Вы не можете начинать темы
    Вы не можете отвечать на сообщения
    Вы не можете редактировать свои сообщения
    Вы не можете удалять свои сообщения
    Вы не можете голосовать в опросах
    Вы не можете прикреплять файлы к сообщениям
    Вы можете скачивать файлы