Ссылка на приватное зеркало нашего сайта всего за 1$. Внимание количество ограничено!!!

2 сезон

iTunes

1 сезон

1

2 сезон

2 сезон

iTunes

1 сезон

RePack

30

Ultimate

ВАЖНО

ИГРА 18+

pack

RePack

MK11
pack

Забери бонус

RePack

jed

!!Акция!!

Alien_Rage

RePack

fifa19

RePack

Assassins Creed: Odyssey

RePack

NEED FOR SPEED™ PAYBACK

4 сезон

9 сезон

Бесстыжие 9 сезон

Все сериалы

все сериалы на PB.wtf

RePack

FAR CRY 5
  

Британские СС / SS-GB / Сезон 1 / Серии 1-5 из 5 (Филипп Кадельбах) [2017, Боевик, драма, WEBRip] MVO [IdeaFilm] pb.wtf

Британские СС через торрент pb.wtf

Размер: 4.49 GB | Добавлен: 3 года 6 мес. назад | Торрент скачан:56 раз
Скачать  

06-05-2017 19:29 Британские СС Скачать торрент  

Британские СС / SS-GB
Год выпуска: 2017
Страна: Великобритания
Жанр: Боевик, драма
Всего серий: 5
Продолжительность: 5 х ~00:59:00
Перевод: Любительский (многоголосый) - [IdeaFilm]
Субтитры: отсутствуют

Режиссер: Филипп Кадельбах

rating

В ролях:

Сэм Райли, Кейт Босворт, Райнер Бок, Ларс Айдингер, Джеймс Космо, Мейв Дермоди, Джейсон Флеминг, Анейрин Барнард, Рональд Церфельд, Джонатан Касс

Описание:

Ноябрь 1941. Лондон. Британия оккупирована фашистами. Дуглас Арчер, известный в Лондоне сыщик, занимается расследованием убийств в Скотланд-Ярде. Хотя теперь начальство у Скотланд-Ярда другое, Дугласа угрызения совести не мучают — кто-то же должен ловить убийц, а в политику он не лезет. Но вот однажды утром Дуглас начинает расследовать одно загадочное убийство, которое выведет его и к Британскому Сопротивлению, и к разведкам разных держав, и в итоге — к очень большой политике.

Качество: WEBRip
Формат: AVI
Видео кодек: XviD
Аудио кодек: AC3

Видео: 720x400 (1.80:1), 25 fps, XviD MPEG-4 ~1794 kbps avg, 0.25 bit/pixel
Аудио#1: 48 kHz, AC3 Dolby Digital, 3/2 (L,C,R,l,r) + LFE ch, ~384 kbps
скриншот   скриншот   скриншот   скриншот  

Общее
Полное имя : D:\IdeaFilm\SS-GB.S01.WEBRip\SS-GB.S01E01.WEBRip.IdeaFilm.avi
Формат : AVI
Формат/Информация : Audio Video Interleave
Размер файла : 924 Мбайт
Продолжительность : 59 м. 0 с.
Общий поток : 2189 Кбит/сек
Библиотека кодирования : VirtualDub build 35576/release

Видео
Идентификатор : 0
Формат : MPEG-4 Visual
Профиль формата : Advanced Simple@L5
Параметр BVOP формата : 2
Параметр QPel формата : Нет
Параметр GMC формата : Без точки перехода
Параметр матрицы формата : Default (H.263)
Режим смешивания : Сжатый битовый поток
Идентификатор кодека : XVID
Идентификатор кодека/Подсказка : XviD
Продолжительность : 59 м. 0 с.
Битрейт : 1795 Кбит/сек
Ширина : 720 пикселей
Высота : 400 пикселей
Соотношение сторон : 16:9
Частота кадров : 25,000 кадров/сек
Цветовое пространство : YUV
Субдискретизация насыщенности : 4:2:0
Битовая глубина : 8 бит
Тип развёртки : Прогрессивная
Метод сжатия : С потерями
Бит/(Пиксели*Кадры) : 0.249
Размер потока : 758 Мбайт (82%)
Библиотека кодирования : XviD 73

Аудио
Идентификатор : 1
Формат : AC-3
Формат/Информация : Audio Coding 3
Параметр Endianness формата : Big
Идентификатор кодека : 2000
Продолжительность : 59 м. 0 с.
Вид битрейта : Постоянный
Битрейт : 384 Кбит/сек
Каналы : 6 каналов
Расположение каналов : Front: L C R, Side: L R, LFE
Частота : 48,0 КГц
Частота кадров : 31,250 кадров/сек (1536 spf)
Битовая глубина : 16 бит
Метод сжатия : С потерями
Размер потока : 162 Мбайт (18%)
Выравнивание : Соединение по промежуткам
Продолжительность промежутка : 40 мс. (1,00 видеокадр)
Время предзагрузки промежутка : 512 мс.
ServiceKind/String : Complete Main

pb.wtf



Скачать Британские СС через торрент http://s019.radikal.ru/i603/1705/5a/e91d6d9fccfe.jpg Скачать фильм Британские СС через торрент бесплантно в хорошем качестве Описание: Ноябрь 194 Лондон. Британия оккупирована фашистами. Дуглас Арчер, известный в Лондоне сыщик, занимается расследованием убийств ... 8.5 10 4
Торрент: Зарегистрирован [2017-05-06 19:29] · скачан: 56 раз
Статус: √ проверено
Размер: 4.49 GB
Как cкачать? Как скачать Британские СС через торрент | qTorrent

% Раздел Тема Автор DL S | L
Зарубежные сериалы [ 3.42 GB ] Британские СС / SS-GB / Сезон: 1 / Серии 1-5 из 5 [2017 WEBRip] [MVO] killermax2013 Скачать
1 | 0
Зарубежные сериалы [ 14.65 GB ] Британские СС / SS-GB / Сезон: 1 / Серии 1-5 из 5 [2017 WEBRip 720p] [MVO] killermax2013 Скачать
1 | 0

28-11-2019 20:33  

Отключить всю рекламу на сайте

    Дорогой пользователь! Огромная просьба, поблагодарите релизера, оцените раздачу и оставьте свои комментарий, если Вы скачали Британские СС через торрент бесплатно! Внесите свою лепту в развитие PiratBit!
    Комментировать посты могут только пользователи прошедшие не сложную регистрацию
    Показать сообщения:    

    Британские СС через торрент
    Скачать бесплатно Британские СС
    Британские СС скачать торрент
    Британские СС смотреть онлайн
    Cкачать фильм Британские СС бесплатно
    Британские СС скачать торрент в хорошем качестве
    Британские СС смотреть онлайн бесплатно в хорошем качестве


    Вы не можете начинать темы
    Вы не можете отвечать на сообщения
    Вы не можете редактировать свои сообщения
    Вы не можете удалять свои сообщения
    Вы не можете голосовать в опросах
    Вы не можете прикреплять файлы к сообщениям
    Вы можете скачивать файлы