Ссылка на приватное зеркало нашего сайта всего за 1$. Внимание количество ограничено!!!

2 сезон

iTunes

1 сезон

1

2 сезон

2 сезон

iTunes

1 сезон

RePack

30

Ultimate

ВАЖНО

ИГРА 18+

pack

RePack

MK11
pack

Забери бонус

RePack

jed

!!Акция!!

Alien_Rage

RePack

fifa19

RePack

Assassins Creed: Odyssey

RePack

NEED FOR SPEED™ PAYBACK

4 сезон

9 сезон

Бесстыжие 9 сезон

Все сериалы

все сериалы на PB.wtf

RePack

FAR CRY 5
  

Телефонистки / Las chicas del cable / 1 сезон / 1-8 серии из 8 (Карлос Седес, Рамон Кампос, Хема Р. Нейра) [2017, драма, мелодрама, детектив, HDTVRip] DVO [SunshineStudio] pb.wtf

Телефонистки через торрент pb.wtf

Размер: 4.88 GB | Добавлен: 3 года 6 мес. назад | Торрент скачан:25 раз
Скачать  

06-05-2017 20:41 Телефонистки Скачать торрент  

Телефонистки / Las chicas del cableГод выпуска: 2017
Страна: Испания
Жанр: драма, мелодрама, детектив
Всего серий: 8
Продожительность: 8 x ~ 00:55:00
Перевод: Любительский (двухголосый) - [SunshineStudio]
Субтитры: отсутствуют

Режиссер: Карлос Седес, Рамон Кампос, Хема Р. Нейра

rating

В ролях:

Бланка Суарес(Лидия), Йон Гонсалес (Франсиско) , Мартиньо Ривас (Карлос) , Мэгги Сивантос (Анджелис), Надя Де Сантьяго (Марга) , Ана Фернандес (Карлота) , Ана Мария Польвороса (Сара) , Конча Веласко (Донья Кармен) , Альба Рибас (Химена) и др.

Описание:

В былые времена, когда еще технологии только стали появляться, профессия телефонисток была очень распространена. Эта картина повествует о нескольких девушках, работающих в крупной телефонной компании, первой в своем роде. Каждая из них это уникальная личность, со своими проблемами и переживаниями. Но здесь им предстоит стать не только одной большой семьей, а и связующим звеном между людьми, которые хотят пообщаться. Они те, кто делают расстояния ближе, помогая людям находить друг друга.

Качество: HDTVRip
Формат: AVI
Видео кодек: XviD
Аудио кодек: AC3

Видео: 720x360 (2.00:1), 29.970 fps, XviD build 50 ~1400 kbps avg, 0.18 bit/pixel
Аудио#1: 48 kHz, AC3 Dolby Digital, 2/0 (L,R) ch, ~192 kbps
скриншот   скриншот   скриншот   скриншот   скриншот  

Общее
Полное имя : D:\Las.Chicas.Del.Cable.S01.400p.SunshineStudio\Las.Chicas.Del.Cable.S01E01.400p.SunshineStudio.avi
Формат : AVI
Формат/Информация : Audio Video Interleave
Размер файла : 620 Мбайт
Продолжительность : 54 м. 3 с.
Общий поток : 1604 Кбит/сек
Программа кодирования : VirtualDubMod 1.5.10.3 | www.virtualdub-fr.org || (build 2550/release)
Библиотека кодирования : VirtualDubMod build 2550/release

Видео
Идентификатор : 0
Формат : MPEG-4 Visual
Профиль формата : Advanced Simple@L5
Параметр BVOP формата : 2
Параметр QPel формата : Нет
Параметр GMC формата : Без точки перехода
Параметр матрицы формата : Default (MPEG)
Идентификатор кодека : XVID
Идентификатор кодека/Подсказка : XviD
Продолжительность : 54 м. 3 с.
Битрейт : 1400 Кбит/сек
Ширина : 720 пикселей
Высота : 360 пикселей
Соотношение сторон : 2,000
Частота кадров : 29,970 (29970/1000) кадров/сек
Цветовое пространство : YUV
Субдискретизация насыщенности : 4:2:0
Битовая глубина : 8 бит
Тип развёртки : Прогрессивная
Метод сжатия : С потерями
Бит/(Пиксели*Кадры) : 0.180
Размер потока : 541 Мбайт (87%)
Библиотека кодирования : XviD 1.2.1 (UTC 2008-12-04)

Аудио
Идентификатор : 1
Формат : AC-3
Формат/Информация : Audio Coding 3
Расширение режима : CM (complete main)
Параметр Endianness формата : Big
Идентификатор кодека : 2000
Продолжительность : 54 м. 2 с.
Вид битрейта : Постоянный
Битрейт : 192 Кбит/сек
Каналы : 2 канала
Расположение каналов : Front: L R
Частота : 48,0 КГц
Частота кадров : 31,250 кадров/сек (1536 spf)
Метод сжатия : С потерями
Размер потока : 74,2 Мбайт (12%)
Выравнивание : Разделение по промежуткам
Продолжительность промежутка : 33 мс. (1,00 видеокадр)
Время предзагрузки промежутка : 500 мс.

pb.wtf



Скачать Телефонистки через торрент http://pic1.kartinco.top/images/11/dfnb3.jpg Скачать фильм Телефонистки через торрент бесплантно в хорошем качестве Описание: В былые времена, когда еще технологии только стали появляться, профессия телефонисток была очень распространена. Эта картина ... 8.6 10 5
Торрент: Зарегистрирован [2017-05-06 20:41] · скачан: 25 раз
Статус: √ проверено
Размер: 4.88 GB
Как cкачать? Как скачать Телефонистки через торрент | qTorrent

% Раздел Тема Автор DL S | L
Зарубежные сериалы [ 12.61 GB ] Телефонистки / Las chicas del cable / Сезон 3 / серии 1-8 из 8 [2018 WEBRip 1080p] [MVO] killermax2013 Скачать
1 | 0
Зарубежные сериалы [ 10.08 GB ] Телефонистки / Las chicas del cable / Сезон 4 / серии 1-8 из 8 [2019 WEBRip 1080p] [MVO] killermax2013 Скачать
1 | 0
Зарубежные сериалы [ 4.98 GB ] Телефонистки / Las chicas del cable / 1 сезон / 1-8 серии из 8 [2017 WEBRip] [MVO] killermax2013 Скачать
1 | 0
Зарубежные сериалы [ 7.08 GB ] Телефонистки / Las chicas del cable / 1 сезон / 1-8 серии из 8 [2017 WEBRip 720p] [MVO] killermax2013 Скачать
1 | 0

28-11-2019 20:33  

Отключить всю рекламу на сайте

    Дорогой пользователь! Огромная просьба, поблагодарите релизера, оцените раздачу и оставьте свои комментарий, если Вы скачали Телефонистки через торрент бесплатно! Внесите свою лепту в развитие PiratBit!
    Комментировать посты могут только пользователи прошедшие не сложную регистрацию
    Показать сообщения:    

    Телефонистки через торрент
    Скачать бесплатно Телефонистки
    Телефонистки скачать торрент
    Телефонистки смотреть онлайн
    Cкачать фильм Телефонистки бесплатно
    Телефонистки скачать торрент в хорошем качестве
    Телефонистки смотреть онлайн бесплатно в хорошем качестве


    Вы не можете начинать темы
    Вы не можете отвечать на сообщения
    Вы не можете редактировать свои сообщения
    Вы не можете удалять свои сообщения
    Вы не можете голосовать в опросах
    Вы не можете прикреплять файлы к сообщениям
    Вы можете скачивать файлы