2 сезон

iTunes

1 сезон

1

iTunes

iTunes

iTunes

1 сезон

RePack

30

ИГРА 18+

pack

ВАЖНО

!!Акция!!

Alien_RageХит недели

RePack

MK11
pack

Забери бонус

RePack

jed

!!Акция!!

Alien_Rage

RePack

fifa19

RePack

Assassins Creed: Odyssey

RePack

NEED FOR SPEED™ PAYBACK

4 сезон

9 сезон

Бесстыжие 9 сезон

Все сериалы

все сериалы на PB.wtf

RePack

FAR CRY 5
  

Космос между нами / The Space Between Us (Питер Челсом) [2017, фантастика, драма, мелодрама, приключения, BDRip 720p] DUB [iTunes] pb.wtf

Космос между нами через торрент pb.wtf

Размер: 6.57 GB | Добавлен: 3 года 5 мес. назад | Торрент скачан:147 раз
Скачать  

06-05-2017 20:48 Космос между нами Скачать торрент  

Космос между нами / The Space Between Us
Год выпуска: 2017
Страна: США
Жанр: фантастика, драма, мелодрама, приключения
Продолжительность: 02:00:43
Перевод: Дубляж - [iTunes]
Субтитры: английские

Режиссер: Питер Челсом

rating

В ролях:

Бритт Робертсон, Гэри Олдман, Эйса Баттерфилд, Джанет Монтгомери, Трей Такер, Скотт Такеда, Сара Минник, Райан Джейсон Кук, Б. Д. Вонг, Лорен Майерс

Описание:

Межпланетная история любви земной девушки и Гарднера Эллиота, выросшего в экспериментальной колонии на Марсе. Их роман начался в интернете, и теперь Эллиот летит на Землю, чтобы встретиться с возлюбленной…

Качество: BDRip 720p
Формат: MKV
Видео кодек: H.264
Аудио кодек: AC3/DTS

Видео: 1280x534p (2.40:1), 23,976 fps, AVC MPEG-4 (x264), High@L4.1, ~5900 Кбит avg., 0.360 bit/pixel
Аудио#1: 48 kHz, AC3, 5.1, 384 Kbps | Дублированный | iTunes | RUS |
Аудио#2: 48 kHz, DTS, 5.1, 1510 Kbps | Оригинал | ENG |
скриншот   скриншот   скриншот   скриншот   скриншот  

General
Unique ID : 174871782830666635361144823381918087942 (0x838F148E6C2EDAF2AD98B6620749FB06)
Complete name : F:VideoThe.Space.Between.Us.2017.BDRip.720p.ExKinoRay.mkv
Format : Matroska
Format version : Version 4 / Version 2
File size : 6.57 GiB
Duration : 2 h 0 min
Overall bit rate : 7 794 kb/s
Encoded date : UTC 2017-05-06 03:31:56
Writing application : mkvmerge v11.0.0 ('Alive') 64bit
Writing library : libebml v1.3.4 + libmatroska v1.4.5

Video
ID : 1
Format : AVC
Format/Info : Advanced Video Codec
Format profile : High@L4.1
Format settings, CABAC : Yes
Format settings, ReFrames : 12 frames
Codec ID : V_MPEG4/ISO/AVC
Duration : 2 h 0 min
Bit rate : 5 900 kb/s
Width : 1 280 pixels
Height : 534 pixels
Display aspect ratio : 2.40:1
Frame rate mode : Constant
Frame rate : 23.976 (24000/1001) FPS
Color space : YUV
Chroma subsampling : 4:2:0
Bit depth : 8 bits
Scan type : Progressive
Bits/(Pixel*Frame) : 0.360
Stream size : 4.97 GiB (76%)
Writing library : x264 core 124 r2197+666+28 3970b70 tMod+MixAQ [8-bit@4:2:0 X86]
Encoding settings : cabac=1 / ref=12 / deblock=1:-3:-3 / analyse=0x3:0x133 / me=umh / subme=11 / psy=1 / fade_compensate=0.00 / psy_rd=1.05:0.15 / mixed_ref=1 / me_range=64 / chroma_me=1 / trellis=2 / 8x8dct=1 / cqm=0 / deadzone=21,11 / fast_pskip=0 / chroma_qp_offset=-3 / threads=12 / sliced_threads=0 / nr=0 / decimate=1 / interlaced=0 / bluray_compat=0 / constrained_intra=0 / fgo=0 / bframes=8 / b_pyramid=2 / b_adapt=2 / b_bias=0 / direct=3 / weightb=1 / open_gop=0 / weightp=2 / keyint=250 / keyint_min=23 / scenecut=40 / intra_refresh=0 / rc_lookahead=120 / rc=2pass / mbtree=1 / bitrate=5900 / ratetol=1.0 / qcomp=0.70 / qpmin=0 / qpmax=69 / qpstep=4 / cplxblur=20.0 / qblur=0.5 / ip_ratio=1.40 / aq=1 / aq-strength=0.70 / aq-sensitivity=10.00 / aq-ifactor=1.00 / aq-pfactor=1.00 / aq-bfactor=1.00 / aq2=0
Language : English
Default : Yes
Forced : No

Audio #1
ID : 2
Format : AC-3
Format/Info : Audio Coding 3
Format settings, Endianness : Big
Codec ID : A_AC3
Duration : 2 h 0 min
Bit rate mode : Constant
Bit rate : 384 kb/s
Channel(s) : 6 channels
Channel positions : Front: L C R, Side: L R, LFE
Sampling rate : 48.0 kHz
Frame rate : 31.250 FPS (1536 spf)
Bit depth : 16 bits
Compression mode : Lossy
Stream size : 332 MiB (5%)
Title : iTunes
Language : Russian
Service kind : Complete Main
Default : Yes
Forced : No

Audio #2
ID : 3
Format : DTS
Format/Info : Digital Theater Systems
Mode : 16
Format settings, Endianness : Big
Codec ID : A_DTS
Duration : 2 h 0 min
Bit rate mode : Constant
Bit rate : 1 509 kb/s
Channel(s) : 6 channels
Channel positions : Front: L C R, Side: L R, LFE
Sampling rate : 48.0 kHz
Frame rate : 93.750 FPS (512 spf)
Bit depth : 24 bits
Compression mode : Lossy
Stream size : 1.27 GiB (19%)
Title : Original
Language : English
Default : No
Forced : No

Text
ID : 4
Format : UTF-8
Codec ID : S_TEXT/UTF8
Codec ID/Info : UTF-8 Plain Text
Duration : 1 h 51 min
Bit rate : 51 b/s
Count of elements : 1527
Stream size : 42.5 KiB (0%)
Title : Full
Language : English
Default : No
Forced : No

Menu
00:00:00.000 : en:00:00:00.000
00:06:16.126 : en:00:06:16.126
00:11:09.210 : en:00:11:09.210
00:18:50.129 : en:00:18:50.129
00:23:06.176 : en:00:23:06.176
00:28:49.686 : en:00:28:49.686
00:33:10.030 : en:00:33:10.030
00:38:24.093 : en:00:38:24.093
00:43:59.804 : en:00:43:59.804
00:49:44.607 : en:00:49:44.607
00:53:36.797 : en:00:53:36.797
00:58:50.736 : en:00:58:50.736
01:06:48.254 : en:01:06:48.254
01:15:40.327 : en:01:15:40.327
01:22:24.523 : en:01:22:24.523
01:30:11.364 : en:01:30:11.364
01:36:16.062 : en:01:36:16.062
01:43:41.215 : en:01:43:41.215
01:48:45.728 : en:01:48:45.728
01:53:45.402 : en:01:53:45.402

pb.wtf



Скачать Космос между нами через торрент http://s018.radikal.ru/i503/1705/b4/98f9fa3a219a.jpg Скачать фильм Космос между нами через торрент бесплантно в хорошем качестве Описание: Межпланетная история любви земной девушки и Гарднера Эллиота, выросшего в экспериментальной колонии на Марсе. Их роман начался в ... 10 10 6
Торрент: Зарегистрирован [2017-05-06 20:48] · скачан: 147 раз
Статус: √ проверено
Размер: 6.57 GB
Как cкачать? Как скачать Космос между нами через торрент | qTorrent

% Раздел Тема Автор DL S | L
Фильмы [HD 720p, 1080p] (Хороший звук DUB, MVO) [ 15.86 GB ] Космос между нами / The Space Between Us [2017 BDRip 1080p] -Lexx- Скачать
1 | 0
Фильмы без перевода [ 30.56 GB ] Космос между нами / The Space Between Us [2017 BD Remux] [Оригинал-ENG] smaster Скачать
1 | 0
Фильмы 2017 [DVDrip, WEB-DLRip, HDrip] (DUB, MVO) [ 2.13 GB ] Космос между нами / The Space Between Us [2017 BDRip] - Twi7ter Скачать
1 | 0
R.G. Resident & PiratVoice - Фильмы, Видео [ 5.78 GB ] Космос между нами / The Space Between Us [2017 BDRip 720p] - schultz Скачать
1 | 0
Фильмы 2017 [DVDrip, WEB-DLRip, HDrip] (DUB, MVO) [ 1.41 GB ] Космос между нами / The Space Between Us [2017 BDRip] - Twi7ter Скачать
1 | 0
R.G. Resident & PiratVoice - Фильмы, Видео [ 3.12 GB ] Космос между нами / The Space Between Us [2017 BDRip-AVC] - schultz Скачать
1 | 0
Фильмы 2017 [DVDrip, WEB-DLRip, HDrip] (DUB, MVO) [ 2.28 GB ] Космос между нами / The Space Between Us [2017 HDRip-AVC] - ExKinoRay Enigma2010 Скачать
1 | 0

28-11-2019 20:33  

Отключить всю рекламу на сайте

    Дорогой пользователь! Огромная просьба, поблагодарите релизера, оцените раздачу и оставьте свои комментарий, если Вы скачали Космос между нами через торрент бесплатно! Внесите свою лепту в развитие PiratBit!
    Комментировать посты могут только пользователи прошедшие не сложную регистрацию
    Показать сообщения:    

    Космос между нами через торрент
    Скачать бесплатно Космос между нами
    Космос между нами скачать торрент
    Космос между нами смотреть онлайн
    Cкачать фильм Космос между нами бесплатно
    Космос между нами скачать торрент в хорошем качестве
    Космос между нами смотреть онлайн бесплатно в хорошем качестве


    Вы не можете начинать темы
    Вы не можете отвечать на сообщения
    Вы не можете редактировать свои сообщения
    Вы не можете удалять свои сообщения
    Вы не можете голосовать в опросах
    Вы не можете прикреплять файлы к сообщениям
    Вы можете скачивать файлы