новый адрес
Мега распродажа FORZA HORIZON 4 ULTIMATE+ВСЕ DLC+ОНЛАЙН всего за 499р. 349 руб. (супер цена). Внимание количество ограничено!!!

iTunes

1+1

iTunes

мы

iTunes

1

iTunes

Чернобыль

iTunes

Ральф против интернета

Лицензия

ПШазам

Лицензия

Оно 2

Лицензия

30
pack

ВАЖНО

!!Акция!!

Alien_RageХит недели

RePack

Resident Evil 21

ИГРА 18+

pack

RePack

Metro:Exodus

!!Акция!!

Alien_Rage

RePack

fifa19

RePack

Assassins Creed: Odyssey

RePack

NEED FOR SPEED™ PAYBACK

3 сезон

9 сезон

Бесстыжие 9 сезон

Все сериалы

все сериалы на PB.wtf

RePack

FAR CRY 5
Ребята, катастрофически не хватает 1900р. для оплаты серверов за Октябрь (всвязи с блокировками трафик упал в 3 раза), 1-2р., выручайте.
  

Случай на шахте восемь (Владимир Басов) [1957, СССР, драма, SATRip от AVP Studio] pb.wtf

Случай на шахте восемь через торрент pb.wtf

Размер: 745 MB | Добавлен: 2 года 6 мес. назад | Торрент скачан:6 раз
Скачать  

07-05-2017 07:43 Случай на шахте восемь Скачать торрент  

Случай на шахте восемь
Страна: СССР
Производство: Мосфильм

Жанр: драма
Год выпуска: 1957
Продолжительность: 01:26:21

Перевод: Не требуется
Cубтитры: нет
Оригинальная аудиодорожка: русский

Режиссер: Владимир Басов

В ролях:
Анатолий Кузнецов, Наталья Фатеева, Николай Боголюбов, Георгий Куликов, Борис Кордунов, Юрий Саранцев, Афанасий Кочетков, Лариса Качанова, Николай Граббе, Николай Парфёнов, Алексей Ян...
Об актёрах подробней

Описание:
После окончания института геолог Володя Батанин приезжает работать в Заполярье. Согласно распределению, он попадает на угольный комбинат в небольшой шахтерский городок. Молодой специалист работает добросовестно, за что его и любят сослуживцы. Через какое-то время Володя становится партсекретарем шахты № 8. Личная жизнь специалиста также складывается удачно: он женится на местной красавице Алле. Все больше вникая в работу комбината, Батанин приходит к выводу, что начальник шахты работает нечестно. Он пытается скрыть от высшего руководства негативные факты, чтобы комбинат считался передовым. Володя не умеет и не желает врать и вступает в открытый конфликт с начальником. Ситуация осложняется тем, что жена Батанина Алла – дочь этого человека…
Картину снимали в Инте (Печерско-угольный бассейн) - место поселения политических заключенных, которые во время Великой Отечественной войны копали там уголь.

Источник: DVB
Качество видео: SATRip
Формат видео: AVI

Видео: 640x480 (4:3), 25 fps, XviD ~ 1068 kbps avg, 0.139 bit/pixel
Аудио: 48 kHz, MP3 2.0, 128 kbps

Раздача от:
Общее
Полное имя : Sluchay.na.shahte.vosem.1957.SATRip-745_[New-team]_by_AVP_Studio.avi
Формат : AVI
Формат/Информация : Audio Video Interleave
Размер файла : 745 Мбайт
Продолжительность : 1 ч. 26 м.
Общий поток : 1206 Кбит/сек
Программа кодирования : VirtualDubMod 1.5.10.3 | www.virtualdub-fr.org || (build 2550/release)
Библиотека кодирования : VirtualDubMod build 2550/release

Видео
Идентификатор : 0
Формат : MPEG-4 Visual
Профиль формата : Advanced Simple@L5
Параметр BVOP формата : 1
Параметр QPel формата : Нет
Параметр GMC формата : Без точки перехода
Параметр матрицы формата : Выборочная
Идентификатор кодека : XVID
Идентификатор кодека/Подсказка : XviD
Продолжительность : 1 ч. 26 м.
Битрейт : 1068 Кбит/сек
Ширина : 640 пикселей
Высота : 480 пикселей
Соотношение сторон : 4:3
Частота кадров : 25,000 кадров/сек
Цветовое пространство : YUV
Субдискретизация насыщенности : 4:2:0
Битовая глубина : 8 бит
Тип развёртки : Прогрессивная
Метод сжатия : С потерями
Бит/(Пиксели*Кадры) : 0.139
Размер потока : 660 Мбайт (89%)
Библиотека кодирования : XviD 73

Аудио
Идентификатор : 1
Формат : MPEG Audio
Версия формата : Version 1
Профиль формата : Layer 3
Идентификатор кодека : 55
Идентификатор кодека/Подсказка : MP3
Продолжительность : 1 ч. 26 м.
Вид битрейта : Постоянный
Битрейт : 128 Кбит/сек
Каналы : 2 канала
Частота : 48,0 КГц
Метод сжатия : С потерями
Размер потока : 79,0 Мбайт (11%)
Выравнивание : Соединение по промежуткам
Продолжительность промежутка : 40 мс. (1,00 видеокадр)
Время предзагрузки промежутка : 504 мс.
Библиотека кодирования : LAME3.99r
Настройки программы : -m s -V 4 -q 2 -lowpass 17 -b 128
pb.wtf



Скачать Случай на шахте восемь через торрент http://s013.radikal.ru/i325/1705/a6/15bc778aa657.png Скачать фильм Случай на шахте восемь через торрент бесплантно в хорошем качестве Описание:После окончания института геолог Володя Батанин приезжает работать в Заполярье. Согласно распределению, он попадает на угольный ... 10 10 1
Info! Золотая раздача, скачанное не засчитывается.
Торрент: Зарегистрирован [2017-05-07 07:43] · скачан: 6 раз
Статус: √ проверено
Размер: 745 MB
Как cкачать? Как скачать Случай на шахте восемь через торрент | qTorrent

% Раздел Тема Автор DL S | L
Кино СССР [ 1.09 GB ] Случай на шахте восемь [1957 СССР SATRip-AVC от AVP Studio] AVP Studio Скачать
1 | 0
Кино СССР [ 1.09 GB ] Случай на шахте восемь [1957 СССР SATRip от AVP Studio] AVP Studio Скачать
1 | 0


>> Регистрируемся здесь <<






Отзывы и комментарии о схеме читаем и пишем здесь: ---> Отзывы и комментарии о схеме

Новые благодарочки в телеграм довольных пользователей:
скриншот   скриншот   скриншот   скриншот   скриншот
    Дорогой пользователь! Огромная просьба, поблагодарите релизера, оцените раздачу и оставьте свои комментарий, если Вы скачали Случай на шахте восемь через торрент бесплатно! Внесите свою лепту в развитие PiratBit!
    Комментировать посты могут только пользователи прошедшие не сложную регистрацию
    Показать сообщения:    

    Случай на шахте восемь через торрент
    Скачать бесплатно Случай на шахте восемь
    Случай на шахте восемь скачать торрент
    Случай на шахте восемь смотреть онлайн
    Cкачать фильм Случай на шахте восемь бесплатно
    Случай на шахте восемь скачать торрент в хорошем качестве
    Случай на шахте восемь смотреть онлайн бесплатно в хорошем качестве


    Вы не можете начинать темы
    Вы не можете отвечать на сообщения
    Вы не можете редактировать свои сообщения
    Вы не можете удалять свои сообщения
    Вы не можете голосовать в опросах
    Вы не можете прикреплять файлы к сообщениям
    Вы можете скачивать файлы