Ссылка на приватное зеркало всего за 1$. Внимание количество ограничено!!!

iTunes

iTunes

iTunes

1

iTunes

iTunes

iTunes

iTunes

iTunes

30
pack

$ от Little Big

ВАЖНО

!!Акция!!

Alien_RageХит недели

RePack

Resident Evil 21

ИГРА 18+

pack

RePack

jed

!!Акция!!

Alien_Rage

RePack

fifa19

RePack

Assassins Creed: Odyssey

RePack

NEED FOR SPEED™ PAYBACK

4 сезон

9 сезон

Бесстыжие 9 сезон

Все сериалы

все сериалы на PB.wtf

RePack

FAR CRY 5
  

Семейное ограбление / Mes trésors (Паскаль Бурдьо) [2017, комедия, WEB-DL 1080p] Дубляж - [Лицензия / iTunes] pb.wtf

Семейное ограбление через торрент pb.wtf

Размер: 3.25 GB | Добавлен: 3 года 2 мес. назад | Торрент скачан:691 раз
Скачать  

07-05-2017 20:01 Семейное ограбление Скачать торрент  


Семейное ограбление / Mes trésors


ИНФОРМАЦИЯ:
Год выпуска:2017
Страна: Франция
Жанр: комедия
Продолжительность: 01:27:01
Перевод: Дубляж - [Лицензия / iTunes]
Режиссер: Паскаль Бурдьо

В Ролях:


Жан Рено (Patrick), Рем Кериси (Caroline), Камиль Шаму (Carole), Бруно Санчес (Fred), Паскаль Демолон (Romain), Жан Ренес (Wladimir Daroff), Марион Брие (Skieuse), Юже Тьерри (Client restaurant), Зина Есепчук (Clubber, в титрах не указана)

ОПИСАНИЕ:
Анжела и Анжелика - две абсолютно разные девушки, которые не имеют ничего общего. Кроме, разве что, отца, которого они никогда не видели. И вот однажды он появился в их жизни. Вор международного масштаба решил наверстать упущенное, создав с дочерьми безумную команду, чтобы совершить ограбление века. И все бы ничего, только гениальный план Патрика дает сбой, и все идет не по запланированному сценарию...

  • Мировая премьера:4 января 2017

    ТЕХ.ДАННЫЕ:
    Качество: WEB-DL 1080p
    Формат: MKV
    Видео: AVC, 1916x792 (2.40:1), 4471 kbps, 25 fps, 0,118 bpp
    Аудио №1: русский / AC3 / 5.1 / 48 kHz / 384 kbps / ||
    Аудио №2: французский / AC3 / 5.1 / 48 kHz / 384 kbps /
    Навигация по главам: есть


    General
    Unique ID : 171075480353277153527694933079284567803 (0x80B3F064AE833F47B57170FCE6E8CEFB)
    Complete name : W:\Торенты\Family.Heist.2017.1080p.WEB-DL.Rus.Fre.HDCLUB.mkv
    Format : Matroska
    Format version : Version 2
    File size : 3.25 GiB
    Duration : 1 h 27 min
    Overall bit rate : 5 346 kb/s
    Movie name : Mes tresors (2017) - Release for HDCLUB
    Encoded date : UTC 2017-05-07 18:58:14
    Writing application : mkvmerge v3.4.0 ('Rapunzel') built on May 15 2010 09:38:20
    Writing library : libebml v0.8.0 + libmatroska v0.9.0

    Video
    ID : 1
    Format : AVC
    Format/Info : Advanced Video Codec
    Format profile : High@L4
    Format settings, CABAC : Yes
    Format settings, ReFrames : 5 frames
    Codec ID : V_MPEG4/ISO/AVC
    Duration : 1 h 27 min
    Bit rate : 4 472 kb/s
    Width : 1 916 pixels
    Height : 792 pixels
    Display aspect ratio : 2.40:1
    Frame rate mode : Constant
    Frame rate : 25.000 FPS
    Color space : YUV
    Chroma subsampling : 4:2:0
    Bit depth : 8 bits
    Scan type : Progressive
    Bits/(Pixel*Frame) : 0.118
    Stream size : 2.72 GiB (84%)
    Title : Mes tresors (2017) - Release for HDCLUB
    Language : French
    Default : Yes
    Forced : No
    Color range : Limited
    Color primaries : BT.709
    Transfer characteristics : BT.709
    Matrix coefficients : BT.709

    Audio #1
    ID : 2
    Format : AC-3
    Format/Info : Audio Coding 3
    Mode extension : CM (complete main)
    Format settings, Endianness : Big
    Codec ID : A_AC3
    Duration : 1 h 27 min
    Bit rate mode : Constant
    Bit rate : 384 kb/s
    Channel(s) : 6 channels
    Channel positions : Front: L C R, Side: L R, LFE
    Sampling rate : 48.0 kHz
    Frame rate : 31.250 FPS (1536 spf)
    Compression mode : Lossy
    Stream size : 239 MiB (7%)
    Title : AC3 5.1 @ 384 kbps - DUB, iTunes
    Language : Russian
    Default : Yes
    Forced : No

    Audio #2
    ID : 3
    Format : AC-3
    Format/Info : Audio Coding 3
    Mode extension : CM (complete main)
    Format settings, Endianness : Big
    Codec ID : A_AC3
    Duration : 1 h 27 min
    Bit rate mode : Constant
    Bit rate : 384 kb/s
    Channel(s) : 6 channels
    Channel positions : Front: L C R, Side: L R, LFE
    Sampling rate : 48.0 kHz
    Frame rate : 31.250 FPS (1536 spf)
    Compression mode : Lossy
    Stream size : 239 MiB (7%)
    Title : AC3 5.1 @ 384 kbps
    Language : French
    Default : No
    Forced : No

    Menu
    00:00:00.000 : en:Chapitre 1
    00:09:54.840 : en:Chapitre 2
    00:20:55.960 : en:Chapitre 3
    00:30:01.160 : en:Chapitre 4
    00:40:59.640 : en:Chapitre 5
    00:51:13.800 : en:Chapitre 6
    01:00:03.280 : en:Chapitre 7
    01:09:59.040 : en:Chapitre 8
    01:17:48.680 : en:Chapitre 9
    01:23:10.800 : en:Chapitre 10
    Скриншоты:

    © Оформление by .::Ворон::.
    pb.wtf



  • Скачать Семейное ограбление через торрент http://pic.kartinco.top/images/6/ordi9.jpg Скачать фильм Семейное ограбление через торрент бесплантно в хорошем качестве Е:Анжела и Анжелика - две абсолютно разные девушки, которые не имеют ничего общего. Кроме, разве что, отца, которого они никогда не видели. ... 9.3 10 16
    Торрент: Зарегистрирован [2017-05-07 20:01] · скачан: 691 раз
    Статус: √ проверено
    Размер: 3.25 GB
    Как cкачать? Как скачать Семейное ограбление через торрент | qTorrent

    % Раздел Тема Автор DL S | L
    Фильмы (Blu-ray, BD-Remux, HDDVD) [ 14.59 GB ] Семейное ограбление / Mes trésors [2017 BD Remux 1080p] DUB [RUS Transfer] [] bober100 Скачать
    1 | 0
    Фильмы 2017 [DVDrip, WEB-DLRip, HDrip] (DUB, MVO) [ 1.36 GB ] Семейное ограбление / Mes trésors [2017 BDRip-AVC] [] - ExKinoRay Enigma2010 Скачать
    2 | 0
    Фильмы 2017 [DVDrip, WEB-DLRip, HDrip] (DUB, MVO) [ 1.46 GB ] Семейное ограбление / Mes trésors [2017 BDRip] - [] Twi7ter Скачать
    1 | 0
    Фильмы [HD 720p, 1080p] (Хороший звук DUB, MVO) [ 2.94 GB ] Семейное ограбление / Mes trésors [2017 BDRip 720p] [] - ExKinoRay Enigma2010 Скачать
    1 | 0
    Фильмы 2017 [DVDrip, WEB-DLRip, HDrip] (DUB, MVO) [ 699 MB ] Семейное ограбление / Mes trеsors [2017 WEB-DLRip] Sherif Скачать
    1 | 0

    28-11-2019 20:33  

    Отключить всю рекламу на сайте

    08-05-2017 17:10 Семейное ограбление Скачать торрент  

    Жан Рено, я, я, зер гут или как там хранцузы квакают, уи месьё.
    Спасибо за Жана конечно, иронизирую.pb.wtf



      Дорогой пользователь! Огромная просьба, поблагодарите релизера, оцените раздачу и оставьте свои комментарий, если Вы скачали Семейное ограбление через торрент бесплатно! Внесите свою лепту в развитие PiratBit!
      Комментировать посты могут только пользователи прошедшие не сложную регистрацию
      Показать сообщения:    

      Семейное ограбление через торрент
      Скачать бесплатно Семейное ограбление
      Семейное ограбление скачать торрент
      Семейное ограбление смотреть онлайн
      Cкачать фильм Семейное ограбление бесплатно
      Семейное ограбление скачать торрент в хорошем качестве
      Семейное ограбление смотреть онлайн бесплатно в хорошем качестве


      Вы не можете начинать темы
      Вы не можете отвечать на сообщения
      Вы не можете редактировать свои сообщения
      Вы не можете удалять свои сообщения
      Вы не можете голосовать в опросах
      Вы не можете прикреплять файлы к сообщениям
      Вы можете скачивать файлы