Ссылка на приватное зеркало всего за 1$. Внимание количество ограничено!!!

iTunes

iTunes

iTunes

1

iTunes

iTunes

iTunes

iTunes

iTunes

30
pack

$ от Little Big

ВАЖНО

!!Акция!!

Alien_RageХит недели

RePack

Resident Evil 21

ИГРА 18+

pack

RePack

jed

!!Акция!!

Alien_Rage

RePack

fifa19

RePack

Assassins Creed: Odyssey

RePack

NEED FOR SPEED™ PAYBACK

4 сезон

9 сезон

Бесстыжие 9 сезон

Все сериалы

все сериалы на PB.wtf

RePack

FAR CRY 5
  

Последствия / Aftermath (Эллиотт Лестер) [2017, Триллер, драма, WEB-DL 720p] DUB [iTunes] pb.wtf

Последствия через торрент pb.wtf

Размер: 3.1 GB | Добавлен: 3 года 2 мес. назад | Торрент скачан:293 раза
Скачать  

07-05-2017 21:28 Последствия Скачать торрент  

Последствия / Aftermath
Год выпуска: 2017
Страна: США
Жанр: Триллер, драма
Продолжительность: 01:33:59
Перевод: Дубляж - [iTunes]
Субтитры: английские

Режиссер: Эллиотт Лестер

rating

В ролях:

Арнольд Шварценеггер, Мэгги Грэйс, Кевин Зегерс, Скут МакНэри, Ханна Уэр, Мариана Клавено, Гленн Моршауэр, Ларри Салливан, Мартин Донован, Мо

Описание:

Не смотрите на то, что в титрах числится Арнольд Шварценеггер, хорошо известный герой кинобоевиков. Этот фильм совершенно иного плана. На этот раз задачей "железного Арни" стало создание образа работяги, глубоко страдающего из-за трагической гибели всей своей родни. Роман Мельник, чтобы обеспечить свою семью, переехал в далекую Америку, где трудится день и ночь на стройке. Спустя несколько лет к нему на чужбине должны присоединиться жена, дочь и не родившийся еще внук. Роман счастлив, как никогда, едет в аэропорт и тут все рушится. Самолет с его родными столкнулся в воздухе с другим самолетом. В то же время авторы фильма показывают нам переживания и страхи Джейка – виновника авиакатастрофы. Его жизнь теперь сломана. От счастливого отца семейства ушла жена, его ждет суд, начальство хочет "умыть руки" и предлагает ему удрать из города. Что случится, если эти двое встретятся? Фильм основан на реальных событиях

Качество: WEB-DL 720p
Формат: MKV
Видео кодек: H.264
Аудио кодек: AC3

Видео: MPEG-4 AVC, 1280x528, 3950 Kbit/s, 23.976 fps, 0.244 bit/pixel
Аудио#1: 48 kHz, AC3, 5.1, 384 Kbps | Дублированный | iTunes | RUS |
Аудио#2: 48 kHz, AC3, 5.1, 384 Kbps | Оригинал | ENG
скриншот   скриншот   скриншот   скриншот   скриншот  

General
Unique ID : 174316542298438070132739236363840965267 (0x83242515A403C2F69B701CEE9D1ACA93)
Complete name : F:VideoAftermath.2017.WEB-DL.720p.ExKinoRay.mkv
Format : Matroska
Format version : Version 4 / Version 2
File size : 3.10 GiB
Duration : 1 h 34 min
Overall bit rate mode : Variable
Overall bit rate : 4 706 kb/s
Encoded date : UTC 2017-05-07 19:53:53
Writing application : mkvmerge v11.0.0 ('Alive') 64bit
Writing library : libebml v1.3.4 + libmatroska v1.4.5

Video
ID : 1
Format : AVC
Format/Info : Advanced Video Codec
Format profile : High@L4.1
Format settings, CABAC : Yes
Format settings, ReFrames : 8 frames
Codec ID : V_MPEG4/ISO/AVC
Duration : 1 h 33 min
Bit rate mode : Variable
Bit rate : 3 950 kb/s
Maximum bit rate : 40.0 Mb/s
Width : 1 280 pixels
Height : 528 pixels
Display aspect ratio : 2.40:1
Frame rate mode : Constant
Frame rate : 23.976 (24000/1001) FPS
Color space : YUV
Chroma subsampling : 4:2:0
Bit depth : 8 bits
Scan type : Progressive
Bits/(Pixel*Frame) : 0.244
Stream size : 2.59 GiB (84%)
Language : English
Default : Yes
Forced : No
Color range : Limited
Color primaries : BT.709
Transfer characteristics : BT.709
Matrix coefficients : BT.709

Audio #1
ID : 2
Format : AC-3
Format/Info : Audio Coding 3
Format settings, Endianness : Big
Codec ID : A_AC3
Duration : 1 h 34 min
Bit rate mode : Constant
Bit rate : 384 kb/s
Channel(s) : 6 channels
Channel positions : Front: L C R, Side: L R, LFE
Sampling rate : 48.0 kHz
Frame rate : 31.250 FPS (1536 spf)
Bit depth : 16 bits
Compression mode : Lossy
Stream size : 259 MiB (8%)
Title : iTunes
Language : Russian
Service kind : Complete Main
Default : Yes
Forced : No

Audio #2
ID : 3
Format : AC-3
Format/Info : Audio Coding 3
Format settings, Endianness : Big
Codec ID : A_AC3
Duration : 1 h 33 min
Bit rate mode : Constant
Bit rate : 384 kb/s
Channel(s) : 6 channels
Channel positions : Front: L C R, Side: L R, LFE
Sampling rate : 48.0 kHz
Frame rate : 31.250 FPS (1536 spf)
Bit depth : 16 bits
Compression mode : Lossy
Stream size : 258 MiB (8%)
Title : Original
Language : English
Service kind : Complete Main
Default : No
Forced : No

Text
ID : 4
Format : UTF-8
Codec ID : S_TEXT/UTF8
Codec ID/Info : UTF-8 Plain Text
Duration : 1 h 25 min
Bit rate : 45 b/s
Count of elements : 776
Stream size : 28.5 KiB (0%)
Title : Full
Language : English
Default : No
Forced : No

Menu
00:00:00.000 : en:1
00:01:14.000 : en:2
00:10:56.000 : en:3
00:22:51.000 : en:4
00:33:46.000 : en:5
00:42:42.000 : en:6
00:54:19.000 : en:7
01:03:37.000 : en:8
01:13:49.000 : en:9
01:27:54.000 : en:10

pb.wtf



Скачать Последствия через торрент http://s019.radikal.ru/i611/1705/8f/e11b54e40ebf.jpg Скачать фильм Последствия через торрент бесплантно в хорошем качестве Описание: Не смотрите на то, что в титрах числится Арнольд Шварценеггер, хорошо известный герой кинобоевиков. Этот фильм совершенно иного ... 10 10 13
Торрент: Зарегистрирован [2017-05-07 21:28] · скачан: 293 раз
Статус: √ проверено
Размер: 3.1 GB
Как cкачать? Как скачать Последствия через торрент | qTorrent

% Раздел Тема Автор DL S | L
Фильмы 2019-2020 [DVDrip, WEB-DLRip, HDrip] (DUB, MVO) [ 2.18 GB ] Последствия / The Aftermath [2019 военный BDRip] - [] - ExKinoRay Enigma2010 Скачать
20 | 1
Фильмы 2019-2020 [DVDrip, WEB-DLRip, HDrip] (DUB, MVO) [ 1.46 GB ] Последствия / The Aftermath [2019 военный BDRip] - [] Twi7ter Скачать
29 | 0
Фильмы 2019-2020 [DVDrip, WEB-DLRip, HDrip] (DUB, MVO) [ 2.25 GB ] Последствия / The Aftermath [2019 военный BDRip-AVC] DUB [] bober100 Скачать
2 | 0
Фильмы (Blu-ray, BD-Remux, HDDVD) [ 37.23 GB ] Последствия / The Aftermath [2019 военный Blu-ray EUR 1080p] DUB [] bober100 Скачать
1 | 0
Фильмы [HD 720p, 1080p] (Хороший звук DUB, MVO) [ 5.92 GB ] Последствия / The Aftermath [2019 военный BDRip 720p] DUB [] bober100 Скачать
1 | 0
Фильмы [HD 720p, 1080p] (Хороший звук DUB, MVO) [ 12.59 GB ] Последствия / The Aftermath [2019 военный BDRip 1080p] DUB [] bober100 Скачать
1 | 0
Фильмы (Blu-ray, BD-Remux, HDDVD) [ 26.23 GB ] Последствия / The Aftermath [2019 военный BD Remux 1080p] DUB [] bober100 Скачать
1 | 0

28-11-2019 20:33  

Отключить всю рекламу на сайте

    Дорогой пользователь! Огромная просьба, поблагодарите релизера, оцените раздачу и оставьте свои комментарий, если Вы скачали Последствия через торрент бесплатно! Внесите свою лепту в развитие PiratBit!
    Комментировать посты могут только пользователи прошедшие не сложную регистрацию
    Показать сообщения:    

    Последствия через торрент
    Скачать бесплатно Последствия
    Последствия скачать торрент
    Последствия смотреть онлайн
    Cкачать фильм Последствия бесплатно
    Последствия скачать торрент в хорошем качестве
    Последствия смотреть онлайн бесплатно в хорошем качестве


    Вы не можете начинать темы
    Вы не можете отвечать на сообщения
    Вы не можете редактировать свои сообщения
    Вы не можете удалять свои сообщения
    Вы не можете голосовать в опросах
    Вы не можете прикреплять файлы к сообщениям
    Вы можете скачивать файлы