Ссылка на приватное зеркало нашего сайта всего за 1$. Внимание количество ограничено!!!

2 сезон

iTunes

1 сезон

1

iTunes

iTunes

iTunes

1 сезон

RePack

30

ИГРА 18+

pack

ВАЖНО

!!Акция!!

Alien_RageХит недели

RePack

MK11
pack

Забери бонус

RePack

jed

!!Акция!!

Alien_Rage

RePack

fifa19

RePack

Assassins Creed: Odyssey

RePack

NEED FOR SPEED™ PAYBACK

4 сезон

9 сезон

Бесстыжие 9 сезон

Все сериалы

все сериалы на PB.wtf

RePack

FAR CRY 5
  

Кловерфилд, 10 / 10 Cloverfield Lane (Дэн Трахтенберг ) [2016, ужасы, фантастика, триллер, BDRip 720p от potroks] Dub [Лицензия] pb.wtf

Кловерфилд, 10 через торрент pb.wtf

Размер: 4.37 GB | Добавлен: 3 года 5 мес. назад | Торрент скачан:386 раз
Скачать  

08-05-2017 05:40 Кловерфилд, 10 Скачать торрент  

Кловерфилд, 10 / 10 Cloverfield Lane

Год выпуска: 2016
Страна: США / Paramount Pictures, Bad Robot, Spectrum Effects
Жанр: ужасы, фантастика, триллер, драма, детектив
Продолжительность: 01:43:34
Перевод: Дубляж [Blu-ray CEE]
Субтитры: русские (форс.), русские (х2), английские (Full + SDH + SDH-Colored)
Навигация по главам: есть

Режиссер: Дэн Трахтенберг
В ролях:

Джон Гудман (Howard), Мэри Элизабет Уинстэд (Michelle), Джон Галлахер мл. (Emmett), Дуглас М. Гриффин (Driver), Сюзанн Крайер (Woman), Брэдли Купер (Ben, озвучка), Сумали Монтано (Voice on Radio, озвучка), Фрэнк Моттек (Radio Broadcaster, озвучка)

Описание: Проснувшись после автомобильной аварии, девушка оказывается в подвале человека, утверждающего, что он спас ей жизнь от химической атаки, которая сделала мир за пределами бункера непригодным для жизни.



Качество: BDRip 720p
Формат: MKV
Видео: AVC, 1280x534 (2.40:1), 4764 kbps, 23,976 fps, 0,291 bpp
Аудио №1: AC3 / 5.1 / 48 kHz / 640 kbps / 16 bit | RUS
Аудио №2: AC3 / 5.1 / 48 kHz / 640 kbps / 16 bit | ENG
General
Unique ID : 255189985111244296962092996687873598292 (0xBFFBCDAA87F511DBBC67DE6B6CC66354)
Complete name : D:\Kloverfild.10.2016.DUAL.BDRip.720p.-HELLYWOOD.mkv
Format : Matroska
Format version : Version 4 / Version 2
File size : 4.37 GiB
Duration : 1 h 43 min
Overall bit rate : 6 041 kb/s
Movie name : 10 Cloverfield Lane (2016)
Encoded date : UTC 2017-05-08 05:02:39
Writing application : mkvmerge v5.9.0 ('On The Loose') built on Dec 15 2012 16:39:58
Writing library : libebml v1.3.0 + libmatroska v1.4.0

Video
ID : 1
Format : AVC
Format/Info : Advanced Video Codec
Format profile : High@L4.1
Format settings, CABAC : Yes
Format settings, ReFrames : 10 frames
Codec ID : V_MPEG4/ISO/AVC
Duration : 1 h 43 min
Bit rate : 4 764 kb/s
Width : 1 280 pixels
Height : 534 pixels
Display aspect ratio : 2.40:1
Frame rate mode : Constant
Frame rate : 23.976 FPS
Color space : YUV
Chroma subsampling : 4:2:0
Bit depth : 8 bits
Scan type : Progressive
Bits/(Pixel*Frame) : 0.291
Stream size : 3.36 GiB (77%)
Title : potroks
Writing library : x264 core 146 r2538 121396c
Encoding settings : cabac=1 / ref=10 / deblock=1:-3:-3 / analyse=0x3:0x113 / me=umh / subme=11 / psy=1 / psy_rd=0.98:0.03 / mixed_ref=1 / me_range=56 / chroma_me=1 / trellis=2 / 8x8dct=1 / cqm=0 / deadzone=21,11 / fast_pskip=0 / chroma_qp_offset=-3 / threads=9 / lookahead_threads=2 / sliced_threads=0 / nr=0 / decimate=0 / interlaced=0 / bluray_compat=0 / constrained_intra=0 / bframes=11 / b_pyramid=2 / b_adapt=2 / b_bias=0 / direct=3 / weightb=1 / open_gop=0 / weightp=2 / keyint=240 / keyint_min=23 / scenecut=40 / intra_refresh=0 / rc_lookahead=60 / rc=2pass / mbtree=0 / bitrate=4764 / ratetol=1.0 / qcomp=0.70 / qpmin=0 / qpmax=69 / qpstep=4 / cplxblur=20.0 / qblur=0.5 / vbv_maxrate=14000 / vbv_bufsize=14000 / nal_hrd=none / filler=0 / ip_ratio=1.40 / pb_ratio=1.30 / aq=1:0.80
Language : English
Default : Yes
Forced : No

Audio #1
ID : 2
Format : AC-3
Format/Info : Audio Coding 3
Mode extension : CM (complete main)
Format settings, Endianness : Big
Codec ID : A_AC3
Duration : 1 h 43 min
Bit rate mode : Constant
Bit rate : 640 kb/s
Channel(s) : 6 channels
Channel positions : Front: L C R, Side: L R, LFE
Sampling rate : 48.0 kHz
Frame rate : 31.250 FPS (1536 spf)
Compression mode : Lossy
Stream size : 474 MiB (11%)
Title : Dub | DD 5.1 @ 640 kbps - Blu-ray CEE
Language : Russian
Default : Yes
Forced : No

Audio #2
ID : 3
Format : AC-3
Format/Info : Audio Coding 3
Mode extension : CM (complete main)
Format settings, Endianness : Big
Codec ID : A_AC3
Duration : 1 h 43 min
Bit rate mode : Constant
Bit rate : 640 kb/s
Channel(s) : 6 channels
Channel positions : Front: L C R, Side: L R, LFE
Sampling rate : 48.0 kHz
Frame rate : 31.250 FPS (1536 spf)
Compression mode : Lossy
Stream size : 474 MiB (11%)
Title : Original | DD 5.1 @ 640 kbps
Language : English
Default : No
Forced : No

Text #1
ID : 4
Format : UTF-8
Codec ID : S_TEXT/UTF8
Codec ID/Info : UTF-8 Plain Text
Title : Forced
Language : Russian
Default : Yes
Forced : No

Text #2
ID : 5
Format : UTF-8
Codec ID : S_TEXT/UTF8
Codec ID/Info : UTF-8 Plain Text
Title : iTunes
Language : Russian
Default : No
Forced : No

Text #3
ID : 6
Format : UTF-8
Codec ID : S_TEXT/UTF8
Codec ID/Info : UTF-8 Plain Text
Title : Unknown
Language : Russian
Default : No
Forced : No

Menu
00:00:00.000 : :Chapter 01
00:05:55.605 : :Chapter 02
00:14:52.516 : :Chapter 03
00:19:18.157 : :Chapter 04
00:24:11.992 : :Chapter 05
00:32:21.940 : :Chapter 06
00:42:59.243 : :Chapter 07
00:47:47.739 : :Chapter 08
00:53:37.088 : :Chapter 09
00:57:00.625 : :Chapter 10
01:03:10.745 : :Chapter 11
01:11:20.192 : :Chapter 12
01:15:49.419 : :Chapter 13
01:24:21.264 : :Chapter 14
01:28:19.085 : :Chapter 15
01:37:31.512 : :Chapter 16
pb.wtf



Скачать Кловерфилд, 10 через торрент http://i91.fastpic.ru/big/2017/0508/60/52044a578c75cfdcc5e472542836e160.png Скачать фильм Кловерфилд, 10 через торрент бесплантно в хорошем качестве Описание: Проснувшись после автомобильной аварии, девушка оказывается в подвале человека, утверждающего, что он спас ей жизнь от ... 9.3 10 16
Info! Золотая раздача, скачанное не засчитывается.
Торрент: Зарегистрирован [2017-05-08 05:40] · скачан: 386 раз
Статус: √ проверено
Размер: 4.37 GB
Как cкачать? Как скачать Кловерфилд, 10 через торрент | qTorrent

% Раздел Тема Автор DL S | L
Ultra HD (UHD: 2K, 4K, 8K) — видео сверхвысокой чёткости [ 46.82 GB ] Кловерфилд 10 / 10 Cloverfield Lane [2016 UHD BDRemux 2160p] DUB + 2xAVO [Dolby Vision] sheker187 Скачать
1 | 0
Ultra HD (UHD: 2K, 4K, 8K) — видео сверхвысокой чёткости [ 41.13 GB ] Кловерфилд 10 / 10 Cloverfield Lane [2016 UHD BDRemux 2160p] DUB [Dolby Vision TV] sheker187 Скачать
1 | 0
Ultra HD (UHD: 2K, 4K, 8K) — видео сверхвысокой чёткости [ 41.2 GB ] Кловерфилд 10 / 10 Cloverfield Lane [2016 UHD BDRemux 2160p] DUB [ Blu-ray CEE] bober100 Скачать
1 | 0
Фильмы (Blu-ray, BD-Remux, HDDVD) [ 22.23 GB ] Кловерфилд 10 / 10 Cloverfield Lane [2016 BD Remux 1080p] DUB [ Blu-Ray CEE] bober100 Скачать
1 | 0
Фильмы с авторской озвучкой [ 1.46 GB ] Кловерфилд 10 / 10 Cloverfield Lane [2016 BDRip] [AVO] killermax2013 Скачать
1 | 0
Фильмы (Blu-ray, BD-Remux, HDDVD) [ 37.21 GB ] Кловерфилд 10 / 10 Cloverfield Lane [2016 Blu-Ray CEE] лицензия Russian Mafia Скачать
1 | 0
R.G. Resident & PiratVoice - Фильмы, Видео [ 2.24 GB ] Кловерфилд 10 / 10 Cloverfield Lane [2016 BDRip-AVC ] schultz Скачать
1 | 0

28-11-2019 20:33  

Отключить всю рекламу на сайте

08-05-2017 18:00 Кловерфилд, 10 Скачать торрент  

7 из 10pb.wtf



    Дорогой пользователь! Огромная просьба, поблагодарите релизера, оцените раздачу и оставьте свои комментарий, если Вы скачали Кловерфилд, 10 через торрент бесплатно! Внесите свою лепту в развитие PiratBit!
    Комментировать посты могут только пользователи прошедшие не сложную регистрацию
    Показать сообщения:    

    Кловерфилд, 10 через торрент
    Скачать бесплатно Кловерфилд, 10
    Кловерфилд, 10 скачать торрент
    Кловерфилд, 10 смотреть онлайн
    Cкачать фильм Кловерфилд, 10 бесплатно
    Кловерфилд, 10 скачать торрент в хорошем качестве
    Кловерфилд, 10 смотреть онлайн бесплатно в хорошем качестве


    Вы не можете начинать темы
    Вы не можете отвечать на сообщения
    Вы не можете редактировать свои сообщения
    Вы не можете удалять свои сообщения
    Вы не можете голосовать в опросах
    Вы не можете прикреплять файлы к сообщениям
    Вы можете скачивать файлы