Присоединяйтесь к нам в Telegram!, здесь всегда актуальный адрес сайта, оперативная поддержка и многое другое!!

>

5.9

iTunes

7.4

iTunes

9.4

1 сезон

1

7.4

2 сезон

7.2

iTunes

7.3

1 сезон

13

6.1

iTunes

8.3

GOG

30

ULTIMATE

pack

9.9

Лицензия

ВАЖНО

ИГРА 18+

pack

7.3

RePack

MK11

7.7

RePack

jed

7.8

RePack

fifa19

8.5

RePack

RDR2

RePack

NEED FOR SPEED™ PAYBACK

5 сезон

9 сезон

Бесстыжие 9 сезон

Все сериалы

все сериалы на PB.wtf

RePack

FAR CRY 5

Anonymous, доброе утро, мы катастрофически не успеваем собрать деньги на оплату серверов, помогите нам пожалуйста 5,10,15р., для нас важна любая помощь . В качестве благодарности мы отключим Вам всю рекламу на сайте (укажите свой ник в строку Ваше имя)!

×
  
Magnet ссылка

Inna - сборник клипов 2017 [2017 г., Pop, WEBRip 1080p] pb.wtf

Inna - сборник клипов 2017 через торрент pb.wtf

Размер: 513 MB | Добавлен: 4 года 6 мес. назад | Торрент скачан:111 раз
Смотреть онлайн Inna - сборник клипов 2017 | Скачать    Ребята, помогите собрать деньги на оплату серверов!!!

08-05-2017 13:12 Inna - сборник клипов 2017 Скачать торрент  

Inna - сборник клипов
Год выпуска: 2017
Жанр: Pop
Продолжительность: 00:16:16
Качество:WEBRip 1080p
Формат: MPEG4
Видео кодек: AVC
Аудио кодек:AAC
Видео: MPEG4 AVC, 1920x1080, 25,000 fps, 5998 kbps
Аудио#1: AAC 44,1 kHz, 2 ch, 160 kbps
1.GGirls - Milk & Honey
2.INNA - GIMME GIMME
3.INNA - Heaven ¦ #WeGlobal Live Session
4.MARCO & SEBA feat. INNA - The Way
Общее
Полное имя : Inna - сборник клипов\GGirls - Milk & Honey.mp4
Формат : MPEG-4
Профиль формата : Base Media
Идентификатор кодека : isom (isom/iso2/avc1/mp41)
Размер файла : 124 Мбайт
Продолжительность : 2 м. 49 с.
Общий поток : 6161 Кбит/сек
Программа кодирования : Lavf56.40.101

Видео
Идентификатор : 1
Формат : AVC
Формат/Информация : Advanced Video Codec
Профиль формата : High@L4
Параметр CABAC формата : Да
Параметр ReFrames формата : 3 кадра
Параметр GOP формата : M=4, N=75
Идентификатор кодека : avc1
Идентификатор кодека/Информация : Advanced Video Coding
Продолжительность : 2 м. 49 с.
Битрейт : 5998 Кбит/сек
Ширина : 1920 пикселей
Высота : 1080 пикселей
Соотношение сторон : 16:9
Режим частоты кадров : Постоянный
Частота кадров : 25,000 кадров/сек
Цветовое пространство : YUV
Субдискретизация насыщенности : 4:2:0
Битовая глубина : 8 бит
Тип развёртки : Прогрессивная
Бит/(Пиксели*Кадры) : 0.116
Размер потока : 121 Мбайт (97%)

Аудио
Идентификатор : 2
Формат : AAC
Формат/Информация : Advanced Audio Codec
Профиль формата : LC
Идентификатор кодека : 40
Продолжительность : 2 м. 49 с.
Duration_LastFrame : -13 мс.
Вид битрейта : Постоянный
Битрейт : 160 Кбит/сек
Каналы : 2 канала
Расположение каналов : Front: L R
Частота : 44,1 КГц
Частота кадров : 43,066 кадра/сек (1024 spf)
Метод сжатия : С потерями
Размер потока : 3,23 Мбайт (3%)
Default : Да
AlternateGroup/String : 1
pb.wtf



Скачать Inna - сборник клипов 2017 через торрент http://funkyimg.com/i/2sLEt.png Скачать, смотреть онлайн Inna - сборник клипов 2017 [2017 г., Pop, WEBRip 1080p] бесплантно в хорошем качестве ТреклистGGirls - Milk & HoneyINNA - GIMME GIMMEINNA - Heaven ¦ #WeGlobal Live SessionMARCO & SEBA feat. INNA - The ... 10 10 6
Торрент: Зарегистрирован [2017-05-08 13:12] · скачан: 111 раз
Статус: √ проверено
Размер: 513 MB
Как cкачать? Как скачать Inna - сборник клипов 2017 через торрент | UTorrent

28-11-2019 20:33  

Отключить всю рекламу на сайте

    Дорогой пользователь! Огромная просьба, поблагодарите релизера, оцените раздачу и оставьте свои комментарий, если Вы скачали Inna - сборник клипов 2017 через торрент бесплатно!
    Комментировать посты могут только пользователи прошедшие не сложную регистрацию
    Показать сообщения:    

    Inna - сборник клипов 2017 через торрент
    Скачать бесплатно Inna - сборник клипов 2017
    Inna - сборник клипов 2017 скачать торрент
    Inna - сборник клипов 2017 смотреть онлайн
    Cкачать фильм Inna - сборник клипов 2017 бесплатно
    Inna - сборник клипов 2017 скачать торрент в хорошем качестве
    Inna - сборник клипов 2017 смотреть онлайн бесплатно в хорошем качестве


    Вы не можете начинать темы
    Вы не можете отвечать на сообщения
    Вы не можете редактировать свои сообщения
    Вы не можете удалять свои сообщения
    Вы не можете голосовать в опросах
    Вы не можете прикреплять файлы к сообщениям
    Вы можете скачивать файлы