MEGA SALE -50% FORZA HORIZON 4 ULTIMATE+ВСЕ DLC+ОНЛАЙН всего за 599р. 299 руб. (супер цена). Внимание количество ограничено!!!

iTunes

1+1

iTunes

мы

iTunes

1

iTunes

Чернобыль

iTunes

Ральф против интернета

Лицензия

ПШазам

Лицензия

Игра престолов

Лицензия

30
pack

ВАЖНО

!!Акция!!

Alien_RageХит недели

RePack

Resident Evil 21

ИГРА 18+

pack

RePack

Metro:Exodus

!!Акция!!

Alien_Rage

RePack

fifa19

RePack

Assassins Creed: Odyssey

RePack

NEED FOR SPEED™ PAYBACK

3 сезон

9 сезон

Бесстыжие 9 сезон

Все сериалы

все сериалы на PB.wtf

RePack

FAR CRY 5
Ребята, катастрофически не хватает 7730р. для оплаты серверов за ИЮЛЬ (всвязи с блокировками трафик упал в 3 раза), 1-2р., выручайте.
  

Нежный проходимец / Tendre voyou (Жан Беккер) [1966 г., Комедия, DVDRip-AVC, Профессиональный (многоголосый)] от ExKinoRay pb.wtf

Нежный проходимец через торрент pb.wtf

Размер: 2.29 GB | Добавлен: 2 года 3 мес. назад | Торрент скачан:9 раз
Скачать  

08-05-2017 16:50 Нежный проходимец Скачать торрент  

Нежный проходимец / Tendre voyou
Год выпуска: 1966
Страна: Франция, Италия
Жанр: Комедия
Продолжительность: 01:31:26
Перевод: Профессиональный (многоголосый)

Режиссер: Жан Беккер

Премьера в мире: 21 сентября 1966

rating

В ролях: Жан-Поль Бельмондо, Надя Тиллер, Жан-Пьер Марьель, Роберт Морли, Женевьева Паж, Марсель Далио, Мишлин Дакс, Мишель Жирардон, Филипп Нуаре, Мария Паком, Петер Карстен, Эллен Баль, Пьер Торнад, Раймон Мёнье, Поль Мерси, Арманде Наварре, Пола Деэлли, Ойа Кодар, Жан Озенн, Леруа Эйн, Дуглас Рид, Иван Десни, Милен Демонжо, Стефания Сандрелли, Доминик Зарди, Амаранда, Джеральдина Линтон

Описание: Бельмондо играет хронического ловеласа и повесу, живущего охмурением богатых дам. Он, перепрыгивая из одной дамской постели в другую, оставляет их мужей в
дураках, а часто и без денег…

Качество: DVDRip-AVC
Формат: MKV
Видео кодек: MPEG4
Аудио кодек: AC3
Видео: MPEG-4 AVC, 3200 Кбит/с, 700x428@995x428, 25 кадров/сек
Аудио#1: Русский (AC3, 2 ch, 192 Кбит/с, 48 КГц)
Аудио#2: Французский (AC3, 2 ch, 192 Кбит/с, 48 КГц)
Релиз от:




raw [info]: 700x428p 64:45 @ 25/1 fps (cfr)
x264 [info]: using SAR=64/45
x264 [info]: using cpu capabilities: MMX2 SSE2Fast LZCNT
x264 [info]: profile High, level 4.1
x264 [info]: frame I:865 Avg QP:17.91 size: 58682
x264 [info]: frame P:30348 Avg QP:20.43 size: 27364
x264 [info]: frame B:105947 Avg QP:22.29 size: 12391
x264 [info]: consecutive B-frames: 1.5% 2.2% 8.4% 27.3% 21.9% 31.8% 3.9% 1.5% 0.6% 0.3% 0.2% 0.1% 0.1% 0.1% 0.0% 0.0% 0.1%
-----
Общее
Уникальный идентификатор : 222638113556381991734608289007919955981 (0xA77E8A7CBFA297388D23F4D6B8F0000D)
Полное имя : E:\Tendre.voyou.1966.DVDRip-AVC.ExKinoRay.mkv
Формат : Matroska
Версия формата : Version 2
Размер файла : 2,29 Гбайт
Продолжительность : 1 ч. 31 м.
Общий поток : 3585 Кбит/сек
Дата кодирования : UTC 2017-05-08 13:53:02
Программа кодирования : mkvmerge v7.8.0 ('River Man') 32bit built on Apr 3 2015 12:11:22
Библиотека кодирования : libebml v1.3.1 + libmatroska v1.4.2

Видео
Идентификатор : 1
Формат : AVC
Формат/Информация : Advanced Video Codec
Профиль формата : High@L4.1
Параметр CABAC формата : Да
Параметр ReFrames формата : 14 кадров
Идентификатор кодека : V_MPEG4/ISO/AVC
Продолжительность : 1 ч. 31 м.
Битрейт : 3200 Кбит/сек
Ширина : 700 пикселей
Высота : 428 пикселей
Соотношение сторон : 2,35:1
Соотношение сторон в оригинале : 2,35:1
Режим частоты кадров : Постоянный
Частота кадров : 25,000 кадров/сек
Цветовое пространство : YUV
Субдискретизация насыщенности : 4:2:0
Битовая глубина : 8 бит
Тип развёртки : Прогрессивная
Бит/(Пиксели*Кадры) : 0.427
Размер потока : 2,00 Гбайт (87%)
Библиотека кодирования : x264 core 148 r2638 7599210
Настройки программы : cabac=1 / ref=14 / deblock=1:-2:-2 / analyse=0x3:0x133 / me=umh / subme=10 / psy=1 / psy_rd=1.05:0.15 / mixed_ref=1 / me_range=32 / chroma_me=1 / trellis=2 / 8x8dct=1 / cqm=0 / deadzone=21,11 / fast_pskip=0 / chroma_qp_offset=-3 / threads=4 / lookahead_threads=1 / sliced_threads=0 / nr=0 / decimate=0 / interlaced=0 / bluray_compat=0 / constrained_intra=0 / bframes=16 / b_pyramid=2 / b_adapt=2 / b_bias=0 / direct=3 / weightb=1 / open_gop=0 / weightp=2 / keyint=250 / keyint_min=25 / scenecut=40 / intra_refresh=0 / rc=2pass / mbtree=0 / bitrate=3200 / ratetol=1.0 / qcomp=0.60 / qpmin=0 / qpmax=69 / qpstep=4 / cplxblur=20.0 / qblur=0.5 / ip_ratio=1.40 / pb_ratio=1.30 / aq=1:1.00
Язык : English
Default : Да
Forced : Нет
Цветовой диапазон : Limited
Основные цвета : BT.601 NTSC
Характеристики трансфера : BT.601
Коэффициенты матрицы : BT.601

Аудио #1
Идентификатор : 2
Формат : AC-3
Формат/Информация : Audio Coding 3
Расширение режима : CM (complete main)
Параметр Endianness формата : Big
Идентификатор кодека : A_AC3
Продолжительность : 1 ч. 31 м.
Вид битрейта : Постоянный
Битрейт : 192 Кбит/сек
Каналы : 2 канала
Расположение каналов : Front: L R
Частота : 48,0 КГц
Частота кадров : 31,250 кадров/сек (1536 spf)
Метод сжатия : С потерями
Задержка видео : 53 мс.
Размер потока : 126 Мбайт (5%)
Язык : Russian
Default : Да
Forced : Нет

Аудио #2
Идентификатор : 3
Формат : AC-3
Формат/Информация : Audio Coding 3
Расширение режима : CM (complete main)
Параметр Endianness формата : Big
Идентификатор кодека : A_AC3
Продолжительность : 1 ч. 31 м.
Вид битрейта : Постоянный
Битрейт : 192 Кбит/сек
Каналы : 2 канала
Расположение каналов : Front: L R
Частота : 48,0 КГц
Частота кадров : 31,250 кадров/сек (1536 spf)
Метод сжатия : С потерями
Размер потока : 126 Мбайт (5%)
Язык : French
Default : Нет
Forced : Нет

pb.wtf



Скачать Нежный проходимец через торрент http://s018.radikal.ru/i503/1705/a7/e155e1e50f77.jpg Скачать фильм Нежный проходимец через торрент бесплантно в хорошем качестве Описание: Бельмондо играет хронического ловеласа и повесу, живущего охмурением богатых дам. Он, перепрыгивая из одной дамской постели в ... 10 10 1
Info! Золотая раздача, скачанное не засчитывается.
Торрент: Зарегистрирован [2017-05-08 16:50] · скачан: 9 раз
Статус: √ проверено
Размер: 2.29 GB
Как cкачать? Как скачать Нежный проходимец через торрент | qTorrent


>> Регистрируемся здесь <<






Отзывы и комментарии о схеме читаем и пишем здесь: ---> Отзывы и комментарии о схеме

Новые благодарочки в телеграм довольных пользователей:
скриншот   скриншот   скриншот   скриншот   скриншот
    Дорогой пользователь! Огромная просьба, поблагодарите релизера, оцените раздачу и оставьте свои комментарий, если Вы скачали Нежный проходимец через торрент бесплатно! Внесите свою лепту в развитие PiratBit!
    Комментировать посты могут только пользователи прошедшие не сложную регистрацию
    Показать сообщения:    

    Нежный проходимец через торрент
    Скачать бесплатно Нежный проходимец
    Нежный проходимец скачать торрент
    Нежный проходимец смотреть онлайн
    Cкачать фильм Нежный проходимец бесплатно
    Нежный проходимец скачать торрент в хорошем качестве
    Нежный проходимец смотреть онлайн бесплатно в хорошем качестве


    Вы не можете начинать темы
    Вы не можете отвечать на сообщения
    Вы не можете редактировать свои сообщения
    Вы не можете удалять свои сообщения
    Вы не можете голосовать в опросах
    Вы не можете прикреплять файлы к сообщениям
    Вы можете скачивать файлы