2 сезон

iTunes

MVO

1

2 сезон

iTunes

iTunes

1 сезон

RePack

30

Ultimate

ВАЖНО

ИГРА 18+

pack

RePack

MK11
pack

Легкие деньги

RePack

jed

RePack

fifa19

RePack

RDR2

RePack

NEED FOR SPEED™ PAYBACK

4 сезон

9 сезон

Бесстыжие 9 сезон

Все сериалы

все сериалы на PB.wtf

RePack

FAR CRY 5

Anonymous, добрый вечер, мы не успеваем собрать деньги на оплату серверов за декабрь и январь, помогите нам пожалуйста в это трудное время. В качестве благодарности мы отключим Вам всю рекламу на сайте (укажите свой ник в строку Ваше имя)!

×
  
Magnet ссылка

Последствия / Aftermath (Эллиотт Лестер) [2017, триллер, драма, WEB-DLRip] DUB [iTunes] pb.wtf

Последствия через торрент pb.wtf

Раздают: 1 [ 0 KB/s ]
Размер: 745 MB | Добавлен: 3 года 8 мес. назад | Торрент скачан:166 раз
Скачать  

08-05-2017 17:40 Последствия Скачать торрент  

Последствия / Aftermath
Год выпуска: 2017
Страна: США
Жанр: триллер, драма
Продолжительность: 01:33:55
Перевод: Дубляж - [iTunes]
Субтитры: отсутствуют

Режиссер: Эллиотт Лестер

rating

В ролях:

Арнольд Шварценеггер, Мэгги Грэйс, Кевин Зегерс, Скут МакНэри, Ханна Уэр, Мариана Клавено, Гленн Моршауэр, Ларри Салливан, Мартин Донован

Описание:

Ожидающий прилета своей семьи Роман узнает, что случилось непоправимое. Произошла авиакатастрофа и его любимые — жена и беременная дочь — погибли.
Потеряв тех, ради кого жил, он преследует единственную цель: посмотреть в глаза невольного убийцы и услышать слова сожаления. Более года поиска приводит Романа к авиадиспетчеру Джейку, управлявшему курсом самолета в момент катастрофы.

Качество: WEB-DLRip
Формат: AVI
Видео кодек: XviD
Аудио кодек: MP3

Видео: XviD, 688x288, 23.976 fps, 976 kbps avg, 0,205 bit/pixel
Аудио#1: MP3, 48,0 КГц, 2 ch, 128 kbps
скриншот   скриншот   скриншот  

Общее
Полное имя : D:\Aftermath.2017.745MB.MegaPeer.avi
Формат : AVI
Формат/Информация : Audio Video Interleave
Размер файла : 745 Мбайт
Продолжительность : 1 ч. 33 м.
Общий поток : 1110 Кбит/сек

Видео
Идентификатор : 0
Формат : MPEG-4 Visual
Профиль формата : Advanced Simple@L5
Параметр BVOP формата : 1
Параметр QPel формата : Нет
Параметр GMC формата : Без точки перехода
Параметр матрицы формата : Выборочная
Идентификатор кодека : XVID
Идентификатор кодека/Подсказка : XviD
Продолжительность : 1 ч. 33 м.
Битрейт : 976 Кбит/сек
Ширина : 688 пикселей
Высота : 288 пикселей
Соотношение сторон : 2,40:1
Частота кадров : 23,976 (24000/1001) кадра/сек
Цветовое пространство : YUV
Субдискретизация насыщенности : 4:2:0
Битовая глубина : 8 бит
Тип развёртки : Прогрессивная
Метод сжатия : С потерями
Бит/(Пиксели*Кадры) : 0.205
Размер потока : 656 Мбайт (88%)
Библиотека кодирования : XviD 73

Аудио
Идентификатор : 1
Формат : MPEG Audio
Версия формата : Version 1
Профиль формата : Layer 3
Режим : Joint stereo
Расширение режима : MS Stereo
Идентификатор кодека : 55
Идентификатор кодека/Подсказка : MP3
Продолжительность : 1 ч. 33 м.
Вид битрейта : Постоянный
Битрейт : 128 Кбит/сек
Каналы : 2 канала
Частота : 48,0 КГц
Метод сжатия : С потерями
Размер потока : 86,0 Мбайт (12%)
Выравнивание : Соединение по промежуткам
Продолжительность промежутка : 167 мс. (4,00 видеокадра)
Время предзагрузки промежутка : 216 мс.
Заголовок : iTunes
Библиотека кодирования : LAME3.99r
Настройки программы : -m j -V 4 -q 2 -lowpass 17 -b 128

pb.wtf



Скачать Последствия через торрент http://s019.radikal.ru/i627/1705/2b/79cba33233e6.jpg Скачать фильм Последствия через торрент бесплантно в хорошем качестве Описание: Ожидающий прилета своей семьи Роман узнает, что случилось непоправимое. Произошла авиакатастрофа и его любимые — жена и ... 9.1 10 9
Info! Золотая раздача, скачанное не засчитывается.
Торрент: Зарегистрирован [2017-05-08 17:40] · скачан: 166 раз
Статус: √ проверено
Размер: 745 MB
Как cкачать? Как скачать Последствия через торрент | UTorrent

% Раздел Тема Автор DL S | L
Фильмы 2019-2020 [DVDrip, WEB-DLRip, HDrip] (DUB, MVO) [ 2.18 GB ] Последствия / The Aftermath [2019 военный BDRip] - [] - ExKinoRay Enigma2010 Скачать
17 | 0
Фильмы 2019-2020 [DVDrip, WEB-DLRip, HDrip] (DUB, MVO) [ 1.46 GB ] Последствия / The Aftermath [2019 военный BDRip] - [] Twi7ter Скачать
31 | 0
Фильмы 2019-2020 [DVDrip, WEB-DLRip, HDrip] (DUB, MVO) [ 2.25 GB ] Последствия / The Aftermath [2019 военный BDRip-AVC] DUB [] bober100 Скачать
1 | 0
Фильмы (Blu-ray, BD-Remux, HDDVD) [ 37.23 GB ] Последствия / The Aftermath [2019 военный Blu-ray EUR 1080p] DUB [] bober100 Скачать
1 | 0
Фильмы [HD 720p, 1080p] (Хороший звук DUB, MVO) [ 5.92 GB ] Последствия / The Aftermath [2019 военный BDRip 720p] DUB [] bober100 Скачать
1 | 0
Фильмы [HD 720p, 1080p] (Хороший звук DUB, MVO) [ 12.59 GB ] Последствия / The Aftermath [2019 военный BDRip 1080p] DUB [] bober100 Скачать
1 | 0
Фильмы (Blu-ray, BD-Remux, HDDVD) [ 26.23 GB ] Последствия / The Aftermath [2019 военный BD Remux 1080p] DUB [] bober100 Скачать
1 | 0


Последний раз редактировалось: bober100 (2017-05-08 18:08), всего редактировалось 1 раз

28-11-2019 20:33  

Отключить всю рекламу на сайте

08-05-2017 17:57 Последствия Скачать торрент  

bober100 писал(а):

Видео: XviD, 688x288, 976 kbps, 0,205 bpp
Аудио#1: MP3, 2 ch, 128 kbps

bober100, не забывайте указывать в тех. данных частоту смены кадра и частоту дискретизации.pb.wtf



08-05-2017 18:15 Последствия Скачать торрент  

Super!!!!!!! Spasibo.pb.wtf



    Дорогой пользователь! Огромная просьба, поблагодарите релизера, оцените раздачу и оставьте свои комментарий, если Вы скачали Последствия через торрент бесплатно! Внесите свою лепту в развитие PiratBit!
    Комментировать посты могут только пользователи прошедшие не сложную регистрацию
    Показать сообщения:    

    Последствия через торрент
    Скачать бесплатно Последствия
    Последствия скачать торрент
    Последствия смотреть онлайн
    Cкачать фильм Последствия бесплатно
    Последствия скачать торрент в хорошем качестве
    Последствия смотреть онлайн бесплатно в хорошем качестве


    Вы не можете начинать темы
    Вы не можете отвечать на сообщения
    Вы не можете редактировать свои сообщения
    Вы не можете удалять свои сообщения
    Вы не можете голосовать в опросах
    Вы не можете прикреплять файлы к сообщениям
    Вы можете скачивать файлы