Ссылка на приватное зеркало всего за 1$. Внимание количество ограничено!!!

iTunes

iTunes

iTunes

1

iTunes

iTunes

iTunes

iTunes

iTunes

30
pack

$ от Little Big

ВАЖНО

!!Акция!!

Alien_RageХит недели

RePack

Resident Evil 21

ИГРА 18+

pack

RePack

jed

!!Акция!!

Alien_Rage

RePack

fifa19

RePack

Assassins Creed: Odyssey

RePack

NEED FOR SPEED™ PAYBACK

4 сезон

9 сезон

Бесстыжие 9 сезон

Все сериалы

все сериалы на PB.wtf

RePack

FAR CRY 5
  

Ирис / Iris (Жалиль Леспер) [2016, триллер, криминал, WEBRip 1080p] VO [BadBajo] pb.wtf

Ирис через торрент pb.wtf

Размер: 7.32 GB | Добавлен: 3 года 2 мес. назад | Торрент скачан:92 раза
Скачать  

09-05-2017 06:45 Ирис Скачать торрент  

Ирис / Iris

Год выпуска: 2016
Страна: Франция, Бельгия
Жанр: триллер, криминал

Продолжительность: 01:38:47
Перевод: Любительский одноголосый [BadBajo]
Примечание: Релиз без рекламы
Субтитры: Английские
Режиссер: Жалиль Леспер
В ролях:

Ромен Дюрис (Max Lopez), Шарлотта Ле Бон (Claudia), Жалиль Леспер (Antoine Doriot), Камилль Коттен (Capitaine Nathalie Vasseur), Адель Беншериф (Capitaine Malek Ziani), Софи Вербек (Nina Lopez), Hélène Barbry (Iris Doriot), Jalis Laleg (Eli Lopez), Виолетта Санчес (Sarah), Джина Хэллер (Laura), Félix Cohen (Maître d'hôtel restaurant), Waël Sersoub (Voiturier restaurant)
Описание:
У преуспевающего банкира пропадает жена. В день исчезновения ему звонит похититель и требует выкуп. Несмотря на угрозы похитителя молчать, банкир обращается в полицию и те начинают поиск преступника. Однако, похититель сам становится жертвой хитроумного плана.
Рейтинг:

Качество: WEBRip 1080p
Формат: MKV
Видео: AVC, 1920x804 (2.40:1), 9634 kbps, 24 fps, 0,260 bpp
Аудио №1: Русский / AC3 / 5.1 / 48 kHz / 384 kbps / |VO, BadBajo|
Аудио №2: Французский / AC3 / 5.1 / 48 kHz / 384 kbps /

General
Unique ID : 199521512380009647953416653722449878317 (0x961A720DDFE2E00F9EF0E247339C1D2D)
Complete name : E:\In.the.Shadow.of.Iris.2017. WEB-DL.1080p.X264_rus_BadBajo.mkv
Format : Matroska
Format version : Version 4 / Version 2
File size : 7.32 GiB
Duration : 1 h 38 min
Overall bit rate mode : Variable
Overall bit rate : 10.6 Mb/s
Encoded date : UTC 2017-05-08 20:17:37
Writing application : mkvmerge v9.5.0 ('Quiet Fire') 64bit
Writing library : libebml v1.3.4 + libmatroska v1.4.5
Cover : Yes
Attachments : cover.jpg

Video
ID : 1
Format : AVC
Format/Info : Advanced Video Codec
Format profile : High@L4
Format settings, CABAC : Yes
Format settings, ReFrames : 4 frames
Codec ID : V_MPEG4/ISO/AVC
Duration : 1 h 38 min
Bit rate mode : Variable
Bit rate : 9 634 kb/s
Maximum bit rate : 40.0 Mb/s
Width : 1 920 pixels
Height : 804 pixels
Display aspect ratio : 2.40:1
Frame rate mode : Constant
Frame rate : 24.000 FPS
Original frame rate : 23.976 (24000/1001) FPS
Color space : YUV
Chroma subsampling : 4:2:0
Bit depth : 8 bits
Scan type : Progressive
Bits/(Pixel*Frame) : 0.260
Stream size : 6.65 GiB (91%)
Default : Yes
Forced : No

Audio #1
ID : 2
Format : AC-3
Format/Info : Audio Coding 3
Mode extension : CM (complete main)
Format settings, Endianness : Big
Codec ID : A_AC3
Duration : 1 h 38 min
Bit rate mode : Constant
Bit rate : 384 kb/s
Channel(s) : 6 channels
Channel positions : Front: L C R, Side: L R, LFE
Sampling rate : 48.0 kHz
Frame rate : 31.250 FPS (1536 spf)
Compression mode : Lossy
Stream size : 271 MiB (4%)
Title : In.the.Shadow.of.Iris_rus_BadBajo
Language : Russian
Default : Yes
Forced : Yes

Audio #2
ID : 3
Format : AC-3
Format/Info : Audio Coding 3
Mode extension : CM (complete main)
Format settings, Endianness : Big
Codec ID : A_AC3
Duration : 1 h 38 min
Bit rate mode : Constant
Bit rate : 384 kb/s
Channel(s) : 6 channels
Channel positions : Front: L C R, Side: L R, LFE
Sampling rate : 48.0 kHz
Frame rate : 31.250 FPS (1536 spf)
Compression mode : Lossy
Stream size : 271 MiB (4%)
Default : No
Forced : No

Text
ID : 4
Format : UTF-8
Codec ID : S_TEXT/UTF8
Codec ID/Info : UTF-8 Plain Text
Default : Yes
Forced : No
pb.wtf



Скачать Ирис через торрент http://i4.imageban.ru/out/2017/05/09/3e89402594a612977a80777be45f3b7e.jpg Скачать фильм Ирис через торрент бесплантно в хорошем качестве Описание: У преуспевающего банкира пропадает жена. В день исчезновения ему звонит похититель и требует выкуп. Несмотря на угрозы похитителя ... 10 10 3
Торрент: Зарегистрирован [2017-05-09 06:45] · скачан: 92 раз
Статус: T временная
Размер: 7.32 GB
Как cкачать? Как скачать Ирис через торрент | qTorrent

% Раздел Тема Автор DL S | L
T Фильмы 2016 (Звук TS, Cam, VO, DVO) [ 1.47 GB ] Ирис / Iris [ 2016 WEB-DLRip] [VO] от ExKinoRay Enigma2010 Скачать
1 | 0
T Релизы по Парсеру [Игры, Сериалы и Фильмы и другое...] [ 1.46 GB ] Дитя Осириса: научная выпуск 1 / Science Fiction Volume One: The Osiris Child [2016 WEB-DLRip] MVO -Lexx- Скачать
2 | 0
T Релизы по Парсеру [Игры, Сериалы и Фильмы и другое...] [ 1.36 GB ] Дитя Осириса: научная выпуск 1 / Science Fiction Volume One: The Osiris Child [2016 HDRip] MVO [GreenРай Studio] bober100 Скачать
1 | 0
T Релизы по Парсеру [Игры, Сериалы и Фильмы и другое...] [ 3.26 GB ] Дитя Осириса: научная выпуск 1 / Science Fiction Volume One: The Osiris Child [2016 WEB-DL 720p] MVO -Lexx- Скачать
1 | 0
# Фильмы [HD 720p, 1080p] (Хороший звук DUB, MVO) [ 2.89 GB ] Дитя Осириса: научная выпуск 1 / Science Fiction Volume One: The Osiris Child [2016 BDRip 720p] MVO [GreenРай Studio] bober100 Скачать
1 | 0
T Фильмы (WEB-DL 720p, 1080p) [ 2.44 GB ] Ирис / Iris [2016 WEB-DL 720p] VO [BadBajo] bober100 Скачать
1 | 0
T Фильмы 2016 (Звук TS, Cam, VO, DVO) [ 1.55 GB ] Ирис / Iris [ 2016 WEB-DLRip-AVC] [VO] от ExKinoRay Enigma2010 Скачать
1 | 0

28-11-2019 20:33  

Отключить всю рекламу на сайте

    Дорогой пользователь! Огромная просьба, поблагодарите релизера, оцените раздачу и оставьте свои комментарий, если Вы скачали Ирис через торрент бесплатно! Внесите свою лепту в развитие PiratBit!
    Комментировать посты могут только пользователи прошедшие не сложную регистрацию
    Показать сообщения:    

    Ирис через торрент
    Скачать бесплатно Ирис
    Ирис скачать торрент
    Ирис смотреть онлайн
    Cкачать фильм Ирис бесплатно
    Ирис скачать торрент в хорошем качестве
    Ирис смотреть онлайн бесплатно в хорошем качестве


    Вы не можете начинать темы
    Вы не можете отвечать на сообщения
    Вы не можете редактировать свои сообщения
    Вы не можете удалять свои сообщения
    Вы не можете голосовать в опросах
    Вы не можете прикреплять файлы к сообщениям
    Вы можете скачивать файлы