Ссылка на приватное зеркало нашего сайта всего за 1$. Внимание количество ограничено!!!

2 сезон

iTunes

1 сезон

1

iTunes

iTunes

iTunes

1 сезон

RePack

30

ИГРА 18+

pack

ВАЖНО

!!Акция!!

Alien_RageХит недели

RePack

MK11
pack

Забери бонус

RePack

jed

!!Акция!!

Alien_Rage

RePack

fifa19

RePack

Assassins Creed: Odyssey

RePack

NEED FOR SPEED™ PAYBACK

4 сезон

9 сезон

Бесстыжие 9 сезон

Все сериалы

все сериалы на PB.wtf

RePack

FAR CRY 5
  

Следуй за мечтой / Follow That Dream (Гордон Дуглас) [1962, мюзикл, комедия, BDRip 720p by msltel] DVO pb.wtf

Следуй за мечтой через торрент pb.wtf

Размер: 4.9 GB | Добавлен: 3 года 5 мес. назад | Торрент скачан:8 раз
Скачать  

09-05-2017 07:36 Следуй за мечтой Скачать торрент  

Название: Следуй за мечтой
Оригинальное название: Follow That Dream
Год выпуска: 1962
Страна: США
Жанр: мюзикл, комедия
Продолжительность: 01:49:31
Перевод: профессиональный двухголосый

Режиссёр: Гордон Дуглас

В ролях: Элвис Пресли, Артур О’Коннелл, Энн Хельм, Джоанна Мур, Джек Крушен, Саймон Оукленд, Роланд Уинтерс, Алан Хьюит, Ховард МакНир, Фрэнк ДеКова, Герберт Радли, Гэвин Коон, Робин Коон, Роберт Каррикарт, Бэрри Руссо

Описание: Семья Квимперов путешествует на автомобиле по Флориде, и на одном из шоссе у них кончается бензин. Недолго думая, глава семейства решает поселиться прямо у дороги, основав в этих живописных местах небольшую общину... Картина основана на романе Ричарда Уолтера Пауэлла «Пионер, иди домой!».



Качество: BDRip 720p
Формат: MKV
Видео: MPEG-4 AVC, 6019 Kбит/с, 1280x544, 23,976 кадра/с
Аудио 1: русский, AC3, 192 kbps, 2 ch, 48 kHz [профессиональный двухголосый, HTB+]
Аудио 2: английский, AC3, 192 kbps, 2 ch, 48 kHz [оригинал]
Субтитры: русские
Имеются неименованные главы/чаптеры.
Общее
Уникальный идентификатор : 245722106641856663560361533641138342581 (0xB8DC5B37A7276294A78FF3F5D9878AB5)
Полное имя : D:\Video\Следуй за мечтой.1962.BDRip.720p by msltel.mkv
Формат : Matroska
Версия формата : Version 4 / Version 2
Размер файла : 4,90 Гбайт
Продолжительность : 1 ч. 49 м.
Общий поток : 6405 Кбит/сек
Название фильма : Rip by msltel
Дата кодирования : UTC 2017-05-08 01:51:46
Программа кодирования : mkvmerge v8.2.0 ('World of Adventure') 64bit
Библиотека кодирования : libebml v1.3.1 + libmatroska v1.4.2

Видео
Идентификатор : 1
Формат : AVC
Формат/Информация : Advanced Video Codec
Профиль формата : High@L4.1
Параметр CABAC формата : Да
Параметр ReFrames формата : 9 кадров
Идентификатор кодека : V_MPEG4/ISO/AVC
Продолжительность : 1 ч. 49 м.
Битрейт : 6019 Кбит/сек
Ширина : 1280 пикселей
Высота : 544 пикселя
Соотношение сторон : 2,35:1
Режим частоты кадров : Постоянный
Частота кадров : 23,976 (24000/1001) кадра/сек
Цветовое пространство : YUV
Субдискретизация насыщенности : 4:2:0
Битовая глубина : 8 бит
Тип развёртки : Прогрессивная
Бит/(Пиксели*Кадры) : 0.361
Размер потока : 4,60 Гбайт (94%)
Библиотека кодирования : x264 core 146 r2538 121396c
Настройки программы : cabac=1 / ref=9 / deblock=1:-3:-2 / analyse=0x3:0x113 / me=umh / subme=11 / psy=1 / psy_rd=1.00:0.15 / mixed_ref=1 / me_range=32 / chroma_me=1 / trellis=2 / 8x8dct=1 / cqm=0 / deadzone=21,11 / fast_pskip=0 / chroma_qp_offset=-3 / threads=6 / lookahead_threads=1 / sliced_threads=0 / nr=0 / decimate=1 / interlaced=0 / bluray_compat=0 / constrained_intra=0 / bframes=12 / b_pyramid=2 / b_adapt=2 / b_bias=0 / direct=1 / weightb=1 / open_gop=0 / weightp=2 / keyint=230 / keyint_min=23 / scenecut=40 / intra_refresh=0 / rc_lookahead=40 / rc=crf / mbtree=0 / crf=20.0 / qcomp=0.60 / qpmin=0 / qpmax=69 / qpstep=4 / vbv_maxrate=62500 / vbv_bufsize=78125 / crf_max=0.0 / nal_hrd=none / filler=0 / ip_ratio=1.40 / pb_ratio=1.30 / aq=1:1.00
Язык : English
Default : Да
Forced : Нет

Аудио #1
Идентификатор : 2
Формат : AC-3
Формат/Информация : Audio Coding 3
Параметр Endianness формата : Big
Идентификатор кодека : A_AC3
Продолжительность : 1 ч. 49 м.
Вид битрейта : Постоянный
Битрейт : 192 Кбит/сек
Каналы : 2 канала
Расположение каналов : Front: L R
Частота : 48,0 КГц
Частота кадров : 31,250 кадров/сек (1536 spf)
Битовая глубина : 16 бит
Метод сжатия : С потерями
Размер потока : 150 Мбайт (3%)
Заголовок : DVO (HTB+)
Язык : Russian
ServiceKind/String : Complete Main
Default : Да
Forced : Нет

Аудио #2
Идентификатор : 3
Формат : AC-3
Формат/Информация : Audio Coding 3
Параметр Endianness формата : Big
Идентификатор кодека : A_AC3
Продолжительность : 1 ч. 49 м.
Вид битрейта : Постоянный
Битрейт : 192 Кбит/сек
Каналы : 2 канала
Расположение каналов : Front: L R
Частота : 48,0 КГц
Частота кадров : 31,250 кадров/сек (1536 spf)
Битовая глубина : 16 бит
Метод сжатия : С потерями
Размер потока : 150 Мбайт (3%)
Заголовок : original
Язык : English
ServiceKind/String : Complete Main
Default : Нет
Forced : Нет

Текст
Идентификатор : 4
Формат : UTF-8
Идентификатор кодека : S_TEXT/UTF8
Идентификатор кодека/Информация : UTF-8 Plain Text
Продолжительность : 1 ч. 46 м.
Битрейт : 137 бит/сек
ElementCount : 1651
Размер потока : 108 Кбайт (0%)
Заголовок : русские
Язык : Russian
Default : Нет
Forced : Нет

Меню
00:00:00.000 : :Chapter 01
00:13:15.503 : :Chapter 02
00:23:25.570 : :Chapter 03
00:32:09.469 : :Chapter 04
00:42:24.124 : :Chapter 05
00:49:20.874 : :Chapter 06
01:03:33.559 : :Chapter 07
01:12:45.569 : :Chapter 08
01:26:02.365 : :Chapter 09
01:34:00.801 : :Chapter 10
01:44:26.343 : :Chapter 11
01:49:21.388 : :Chapter 12
01:49:31.356 : :Chapter 13
pb.wtf



Скачать Следуй за мечтой через торрент http://s019.radikal.ru/i602/1705/9f/457b752bbd29.jpg Скачать фильм Следуй за мечтой через торрент бесплантно в хорошем качестве Описание: Семья Квимперов путешествует на автомобиле по Флориде, и на одном из шоссе у них кончается бензин. Недолго думая, глава семейства ... 10 10 2
Info! Золотая раздача, скачанное не засчитывается.
Торрент: Зарегистрирован [2017-05-09 07:36] · скачан: 8 раз
Статус: √ проверено
Размер: 4.9 GB
Как cкачать? Как скачать Следуй за мечтой через торрент | qTorrent

% Раздел Тема Автор DL S | L
Фильмы [HD 720p, 1080p] (Хороший звук DUB, MVO) [ 12.53 GB ] Следуй за мечтой / Follow That Dream [1962 мюзикл BDRip 1080p by msltel] DVO msltel Скачать
1 | 0

28-11-2019 20:33  

Отключить всю рекламу на сайте

    Дорогой пользователь! Огромная просьба, поблагодарите релизера, оцените раздачу и оставьте свои комментарий, если Вы скачали Следуй за мечтой через торрент бесплатно! Внесите свою лепту в развитие PiratBit!
    Комментировать посты могут только пользователи прошедшие не сложную регистрацию
    Показать сообщения:    

    Следуй за мечтой через торрент
    Скачать бесплатно Следуй за мечтой
    Следуй за мечтой скачать торрент
    Следуй за мечтой смотреть онлайн
    Cкачать фильм Следуй за мечтой бесплатно
    Следуй за мечтой скачать торрент в хорошем качестве
    Следуй за мечтой смотреть онлайн бесплатно в хорошем качестве


    Вы не можете начинать темы
    Вы не можете отвечать на сообщения
    Вы не можете редактировать свои сообщения
    Вы не можете удалять свои сообщения
    Вы не можете голосовать в опросах
    Вы не можете прикреплять файлы к сообщениям
    Вы можете скачивать файлы