Ссылка на приватное зеркало нашего сайта всего за 1$. Внимание количество ограничено!!!

2 сезон

iTunes

1 сезон

1

iTunes

iTunes

iTunes

1 сезон

RePack

30

ИГРА 18+

pack

ВАЖНО

!!Акция!!

Alien_RageХит недели

RePack

MK11
pack

Забери бонус

RePack

jed

!!Акция!!

Alien_Rage

RePack

fifa19

RePack

Assassins Creed: Odyssey

RePack

NEED FOR SPEED™ PAYBACK

4 сезон

9 сезон

Бесстыжие 9 сезон

Все сериалы

все сериалы на PB.wtf

RePack

FAR CRY 5
  

Конвой / 1-4 серии из 4 (Виталий Ващенко) [2017, WEB-DL 720p] pb.wtf

Конвой через торрент pb.wtf

Размер: 4.11 GB | Добавлен: 3 года 5 мес. назад | Торрент скачан:150 раз
Скачать  

09-05-2017 08:51 Конвой Скачать торрент  

Конвой (1-4 серии из 4)
Год выпуска: 2017
Страна: Украина
Продолжительность: 4 х ~ 00:45:00
Перевод: Не требуется
Субтитры: отсутствуют

Режиссер: Виталий Ващенко

В ролях:

Илья Денискин, Полина Василина, Михаил Хмуров, Александр Соколов, Евгений Ламах, Василий Сивохоп, Алексей Дмитриев, Дмитрий Сарансков, Антон Себастьян

Описание:

Группа советских солдат везет на аэродром секретный груз, а по их следу идет карательный отряд немцев. По дороге солдаты случайно наткнулись на отряд фашистских полицаев, которые бесчинствовали в деревне. Несмотря на приказ командира не вмешиваться и четко следовать главному заданию – доставить ценный груз – отважный и мужественный Роман пытается защитить жителей деревни. За свое неповиновение ему придется отвечать на трибунале.

Качество: WEB-DL 720p
Формат: MKV
Видео кодек: H.264
Аудио кодек: AC3

Видео: 1280х720 (16:9), 25 fps, AVC MPEG-4 (x264), High@L4.1 ~ 3000 kbps , 0.129 bit/pixel
Аудио#1: 48 kHz, AC3, 2/0 (L,R) ch, ~192 kbps
скриншот   скриншот   скриншот   скриншот  

Общее
Уникальный идентификатор : 324524555684250735160101553130918907842 (0xF42527EC3765A98F1BEB1BC77C200FC2)
Полное имя : C:\Konvoj.2017.WEB-DL.720.\01.Konvoj.2017.WEB-DL.720.mkv
Формат : Matroska
Версия формата : Version 4 / Version 2
Размер файла : 992 Мбайт
Продолжительность : 43 м. 25 с.
Общий поток : 3194 Кбит/сек
Программа кодирования : Lavf56.25.101
Библиотека кодирования : Lavf56.25.101

Видео
Идентификатор : 1
Формат : AVC
Формат/Информация : Advanced Video Codec
Профиль формата : Main@L3.1
Параметр CABAC формата : Нет
Параметр ReFrames формата : 2 кадра
Идентификатор кодека : V_MPEG4/ISO/AVC
Продолжительность : 43 м. 25 с.
Битрейт : 3000 Кбит/сек
Ширина : 1280 пикселей
Высота : 720 пикселей
Соотношение сторон : 16:9
Режим частоты кадров : Постоянный
Частота кадров : 25,000 кадров/сек
Цветовое пространство : YUV
Субдискретизация насыщенности : 4:2:0
Битовая глубина : 8 бит
Тип развёртки : Прогрессивная
Бит/(Пиксели*Кадры) : 0.129
Размер потока : 913 Мбайт (92%)
Default : Да
Forced : Нет
Цветовой диапазон : Limited
Основные цвета : BT.709
Характеристики трансфера : BT.709
Коэффициенты матрицы : BT.709

Аудио
Идентификатор : 2
Формат : AC-3
Формат/Информация : Audio Coding 3
Параметр Endianness формата : Big
Идентификатор кодека : A_AC3
Продолжительность : 43 м. 25 с.
Вид битрейта : Постоянный
Битрейт : 192 Кбит/сек
Каналы : 2 канала
Расположение каналов : Front: L R
Частота : 48,0 КГц
Частота кадров : 31,250 кадров/сек (1536 spf)
Битовая глубина : 16 бит
Метод сжатия : С потерями
Задержка видео : -40 мс.
Размер потока : 59,6 Мбайт (6%)
ServiceKind/String : Complete Main
Default : Да
Forced : Нет

pb.wtf



Скачать Конвой через торрент http://i062.radikal.ru/1705/df/efdc4fca165e.jpg Скачать фильм Конвой через торрент бесплантно в хорошем качестве Описание: Группа советских солдат везет на аэродром секретный груз, а по их следу идет карательный отряд немцев. По дороге солдаты случайно ... 9.9 10 8
Торрент: Зарегистрирован [2017-05-09 08:51] · скачан: 150 раз
Статус: √ проверено
Размер: 4.11 GB
Как cкачать? Как скачать Конвой через торрент | qTorrent

% Раздел Тема Автор DL S | L
Наши сериалы [ 2.31 GB ] Конвой / 1-4 серии из 4 [2017 военный WEB-DLRip-AVC] bober100 Скачать
1 | 0
Наши сериалы [ 2.31 GB ] Конвой / Серии: 1-4 из 4 [2017 военный SATRip-AVC] aleksan55 Скачать
1 | 0
Наши сериалы [ 2.4 GB ] Конвой / Серии 1-4 из 4 [2017 Военный WEB-DLRip-AVC] - ExKinoRay Enigma2010 Скачать
2 | 0
Наши сериалы [ 2.15 GB ] Конвой / Серии 1-4 из 4 [2017 Военный WEB-DLRip] oleg8 Скачать
1 | 0

28-11-2019 20:33  

Отключить всю рекламу на сайте

    Дорогой пользователь! Огромная просьба, поблагодарите релизера, оцените раздачу и оставьте свои комментарий, если Вы скачали Конвой через торрент бесплатно! Внесите свою лепту в развитие PiratBit!
    Комментировать посты могут только пользователи прошедшие не сложную регистрацию
    Показать сообщения:    

    Конвой через торрент
    Скачать бесплатно Конвой
    Конвой скачать торрент
    Конвой смотреть онлайн
    Cкачать фильм Конвой бесплатно
    Конвой скачать торрент в хорошем качестве
    Конвой смотреть онлайн бесплатно в хорошем качестве


    Вы не можете начинать темы
    Вы не можете отвечать на сообщения
    Вы не можете редактировать свои сообщения
    Вы не можете удалять свои сообщения
    Вы не можете голосовать в опросах
    Вы не можете прикреплять файлы к сообщениям
    Вы можете скачивать файлы