новый адрес
Ссылка на приватное зеркало всего за 1$. Внимание количество ограничено!!!

iTunes

1+1

iTunes

мы

WEB-DL

1

iTunes

Чернобыль

iTunes

Ральф против интернета

Лицензия

ПШазам

Лицензия

Оно 2

Лицензия

30
pack

Вам бонус

ВАЖНО

!!Акция!!

Alien_RageХит недели

RePack

Resident Evil 21

ИГРА 18+

pack

RePack

jed

!!Акция!!

Alien_Rage

RePack

fifa19

RePack

Assassins Creed: Odyssey

RePack

NEED FOR SPEED™ PAYBACK

3 сезон

9 сезон

Бесстыжие 9 сезон

Все сериалы

все сериалы на PB.wtf

RePack

FAR CRY 5
Ребята, катастрофически не хватает 1900р. для оплаты серверов за Октябрь (всвязи с блокировками трафик упал в 3 раза), 1-2р., выручайте.
  

Ирис / Iris (Жалиль Леспер) [ 2016 г., триллер, WEB-DLRip-AVC] [VO] (BadBajo) от ExKinoRay pb.wtf

Ирис через торрент pb.wtf

Размер: 1.55 GB | Добавлен: 2 года 7 мес. назад | Торрент скачан:122 раза
Скачать  

09-05-2017 11:50 Ирис Скачать торрент  

Информация о фильме
Название: Ирис
Оригинальное название: Iris
Год выпуска: 2016
Жанр: Триллер
Выпущено: Франция, Бельгия, Wy Productions, France 2 Cinéma, Universal Pictures Vidéo
Продолжительность: 01:38:47
Озвучивание: Любительское (одноголосое) [BadBajo]
Режиссер: Жалиль Леспер
В ролях: Ромен Дюрис, Шарлотта Ле Бон, Жалиль Леспер, Камилль Коттен, Адель Беншериф, Софи Вербек, Элен Барбери, Жалис Лалег, Виолетта Санчес, Джина Хэллер

Описание:
У преуспевающего банкира пропадает жена. В день исчезновения ему звонит похититель и требует выкуп. Несмотря на угрозы похитителя молчать, банкир обращается в полицию и те начинают поиск преступника. Однако, похититель сам становится жертвой хитроумного плана.


rating

Файл
Качество: WEB-DLRip (AVC)
Видео: MPEG-4 AVC, 1024x428 (2.40:1), ~ 1477 kbps avg, 24.000 FPS, 0.140 bit/pixel
Звук1: AC-3, 48.0 KHz, 5.1 ch, 384 Kbps, CBR - BadBajo
Звук2: AC-3, 48.0 KHz, 5.1 ch, 384 Kbps, CBR - French
Субтитры: Английские

Без какой-либо рекламы.

Семпл
General
Unique ID : 204225138646983686233601780342842369776 (0x99A454BBDF02F89A98C468BDA1B2A6F0)
Complete name : D:\In.the.Shadow.of.Iris.2017.AVO.BadBajo.WEB-DLRip.AVC.ExKinoRay.mkv
Format : Matroska
Format version : Version 2
File size : 1.55 GiB
Duration : 1 h 38 min
Overall bit rate : 2 245 kb/s
Movie name : Iris (2016) from ExKinoRay
Encoded date : UTC 2017-05-09 11:13:25
Writing application : mkvmerge v5.8.0 ('No Sleep / Pillow') built on Sep 2 2012 15:37:04
Writing library : libebml v1.2.3 + libmatroska v1.3.0

Video
ID : 1
Format : AVC
Format/Info : Advanced Video Codec
Format profile : High@L4.1
Format settings, CABAC : Yes
Format settings, ReFrames : 12 frames
Codec ID : V_MPEG4/ISO/AVC
Duration : 1 h 38 min
Bit rate : 1 477 kb/s
Width : 1 024 pixels
Height : 428 pixels
Display aspect ratio : 2.40:1
Frame rate mode : Constant
Frame rate : 24.000 FPS
Color space : YUV
Chroma subsampling : 4:2:0
Bit depth : 8 bits
Scan type : Progressive
Bits/(Pixel*Frame) : 0.140
Stream size : 1 012 MiB (64%)
Writing library : x264 core 144 r2525 40bb568
Encoding settings : cabac=1 / ref=12 / deblock=1:-2:-2 / analyse=0x3:0x113 / me=umh / subme=10 / psy=1 / psy_rd=1.05:0.10 / mixed_ref=1 / me_range=32 / chroma_me=1 / trellis=2 / 8x8dct=1 / cqm=0 / deadzone=21,11 / fast_pskip=1 / chroma_qp_offset=-3 / threads=12 / lookahead_threads=2 / sliced_threads=0 / nr=0 / decimate=0 / interlaced=0 / bluray_compat=0 / constrained_intra=0 / bframes=9 / b_pyramid=2 / b_adapt=2 / b_bias=0 / direct=3 / weightb=1 / open_gop=0 / weightp=2 / keyint=240 / keyint_min=24 / scenecut=40 / intra_refresh=0 / rc_lookahead=40 / rc=2pass / mbtree=0 / bitrate=1477 / ratetol=1.0 / qcomp=0.60 / qpmin=0 / qpmax=51 / qpstep=4 / cplxblur=20.0 / qblur=0.5 / vbv_maxrate=50000 / vbv_bufsize=62500 / nal_hrd=none / filler=0 / ip_ratio=1.40 / pb_ratio=1.30 / aq=1:1.00
Language : English
Default : Yes
Forced : No
Color range : Limited
Color primaries : BT.709
Transfer characteristics : BT.709
Matrix coefficients : BT.709

Audio #1
ID : 2
Format : AC-3
Format/Info : Audio Coding 3
Mode extension : CM (complete main)
Format settings, Endianness : Big
Codec ID : A_AC3
Duration : 1 h 38 min
Bit rate mode : Constant
Bit rate : 384 kb/s
Channel(s) : 6 channels
Channel positions : Front: L C R, Side: L R, LFE
Sampling rate : 48.0 kHz
Frame rate : 31.250 FPS (1536 spf)
Compression mode : Lossy
Stream size : 271 MiB (17%)
Title : AVO (BadBajo)
Language : Russian
Default : Yes
Forced : No

Audio #2
ID : 3
Format : AC-3
Format/Info : Audio Coding 3
Mode extension : CM (complete main)
Format settings, Endianness : Big
Codec ID : A_AC3
Duration : 1 h 38 min
Bit rate mode : Constant
Bit rate : 384 kb/s
Channel(s) : 6 channels
Channel positions : Front: L C R, Side: L R, LFE
Sampling rate : 48.0 kHz
Frame rate : 31.250 FPS (1536 spf)
Compression mode : Lossy
Stream size : 271 MiB (17%)
Language : French
Default : No
Forced : No

Text
ID : 4
Format : UTF-8
Codec ID : S_TEXT/UTF8
Codec ID/Info : UTF-8 Plain Text
Title : English
Language : English
Default : No
Forced : No
Релиз от:

Автор релиза: pb.wtf



Скачать Ирис через торрент http://lostpix.com/img/2017-05/09/n8qaei2sxjv2ev0txwo12c9m9.jpg Скачать фильм Ирис через торрент бесплантно в хорошем качестве Описание: У преуспевающего банкира пропадает жена. В день исчезновения ему звонит похититель и требует выкуп. Несмотря на угрозы ... 5.5 10 4
Info! Золотая раздача, скачанное не засчитывается.
Торрент: Зарегистрирован [2017-05-09 11:50] · скачан: 122 раз
Статус: T временная
Размер: 1.55 GB
Как cкачать? Как скачать Ирис через торрент | qTorrent

% Раздел Тема Автор DL S | L
T Фильмы 2016 (Звук TS, Cam, VO, DVO) [ 1.47 GB ] Ирис / Iris [ 2016 WEB-DLRip] [VO] от ExKinoRay Enigma2010 Скачать
2 | 0

28-11-2019 20:33  

Отключить всю рекламу на сайте

    Дорогой пользователь! Огромная просьба, поблагодарите релизера, оцените раздачу и оставьте свои комментарий, если Вы скачали Ирис через торрент бесплатно! Внесите свою лепту в развитие PiratBit!
    Комментировать посты могут только пользователи прошедшие не сложную регистрацию
    Показать сообщения:    

    Ирис через торрент
    Скачать бесплатно Ирис
    Ирис скачать торрент
    Ирис смотреть онлайн
    Cкачать фильм Ирис бесплатно
    Ирис скачать торрент в хорошем качестве
    Ирис смотреть онлайн бесплатно в хорошем качестве


    Вы не можете начинать темы
    Вы не можете отвечать на сообщения
    Вы не можете редактировать свои сообщения
    Вы не можете удалять свои сообщения
    Вы не можете голосовать в опросах
    Вы не можете прикреплять файлы к сообщениям
    Вы можете скачивать файлы