Всегда рабочее зеркало без VPN и Proxy просто перед .vidak.icu напиши любое слово или цифру, Пример http://99yz.vidak.icu

MVO

2 сезон

2 сезон

1

1 сезон

iTunes

2 сезон

13

1 сезон

Распродажа

pack

Рекомендуем

Пиратка

30

ВАЖНО

RePack

MK11

RePack

jed

RePack

fifa19

RePack

RDR2

RePack

NEED FOR SPEED™ PAYBACK

Кинопоиск HD

6 сезон

 Острые козырьки 6 сезон

Все сериалы

все сериалы на PB.wtf

RePack

FAR CRY 5

Anonymous, нам критически не хватает 5601 руб. на оплату серверов и переферии за Апрель, помоги нам пожалуйста, вся надежда только на тебя. В благодарность мы отключим тебе всю рекламу на сайте!

×
  
Magnet ссылка

Нападение пончиков-убийц / Attack of the Killer Donuts (Скотт Вилер) [2016, ужасы, комедия, WEB-DL 720p] Любительский многоголосый [Синема УС] pb.wtf

Нападение пончиков-убийц через торрент pb.wtf

Размер: 2.7 GB | Добавлен: 5 лет назад | Торрент скачан:14 раз
Смотреть онлайн Нападение пончиков-убийц | Скачать    Ребята, помогите собрать деньги на оплату серверов!!!

09-05-2017 18:20 Нападение пончиков-убийц Скачать торрент  

Нападение пончиков-убийц / Attack of the Killer Donuts

Год выпуска: 2016
Страна: США
Жанр: ужасы, комедия
Продолжительность: 01:26:37
Перевод: Любительский многоголосый [Синема УС]
Примечание: Присутствует реклама!
Режиссер: Скотт Вилер
В ролях:

Фредрик Барнс (Officer Hammerstein), Кайла Комптон (Michelle Kester), Лорен Комптон (Veronica), Крис Де Кристофер (Cliff Burbank), Элисон Инглэнд (Mrs. Scolari), Филлип Фэллон (Brandon), Майкл Гальо (Mr. Richards), Аарон Гробен (Bobby), Ben Heyman (Howard), Си Томас Хауэлл (Officer Roberts), Кристин Нгуйен (Martha), Грант Остин О’Коннелл (Conrad)
Описание:
Некая химическая субстанция превращает обычные пончики в кровожадных убийц, и теперь троим друзьям предстоит спасать родной городок от плотоядных кондитерских изделий.
Рейтинг:

Качество: WEB-DL 720p
Формат: MKV
Видео: AVC, 1280x720 (16:9), 3993 kbps, 23,976 fps, 0,181 bpp
Аудио: AC3 / 2.0 / 48 kHz / 384 kbps /
General
Unique ID : 232081751139370227217446739344993817523 (0xAE9951C4A01397D29558CF2EF33013B3)
Complete name : E:\Attack.Of.The.Killer.Donuts.2016.P.WEB-DL.72Op_KOSHARA.mkv
Format : Matroska
Format version : Version 2
File size : 2.70 GiB
Duration : 1 h 26 min
Overall bit rate mode : Variable
Overall bit rate : 4 466 kb/s
Encoded date : UTC 2017-05-09 12:40:56
Writing application : mkvmerge v8.3.0 ('Over the Horizon') 64bit
Writing library : libebml v1.3.1 + libmatroska v1.4.2

Video
ID : 1
Format : AVC
Format/Info : Advanced Video Codec
Format profile : High@L4.1
Format settings, CABAC : Yes
Format settings, ReFrames : 9 frames
Codec ID : V_MPEG4/ISO/AVC
Duration : 1 h 26 min
Bit rate mode : Variable
Bit rate : 3 993 kb/s
Maximum bit rate : 4 500 kb/s
Width : 1 280 pixels
Height : 720 pixels
Display aspect ratio : 16:9
Frame rate mode : Constant
Frame rate : 23.976 (24000/1001) FPS
Standard : Component
Color space : YUV
Chroma subsampling : 4:2:0
Bit depth : 8 bits
Scan type : Progressive
Bits/(Pixel*Frame) : 0.181
Stream size : 2.42 GiB (89%)
Default : Yes
Forced : No
Color range : Limited
Color primaries : BT.709
Transfer characteristics : BT.709
Matrix coefficients : BT.709

Audio
ID : 2
Format : AC-3
Format/Info : Audio Coding 3
Mode extension : CM (complete main)
Format settings, Endianness : Big
Codec ID : A_AC3
Duration : 1 h 26 min
Bit rate mode : Constant
Bit rate : 384 kb/s
Channel(s) : 2 channels
Channel positions : Front: L R
Sampling rate : 48.0 kHz
Frame rate : 31.250 FPS (1536 spf)
Compression mode : Lossy
Stream size : 238 MiB (9%)
Default : Yes
Forced : No
pb.wtf



Скачать Нападение пончиков-убийц через торрент http://i4.imageban.ru/out/2017/05/09/9960774c83e34525b2bb2d3065e6ca2e.jpg Скачать, смотреть онлайн Нападение пончиков-убийц бесплантно в хорошем качестве Описание: Некая химическая субстанция превращает обычные пончики в кровожадных убийц, и теперь троим друзьям предстоит спасать родной ... 10 10 3
Торрент: Зарегистрирован [2017-05-09 18:20] · скачан: 14 раз
Статус: T временная
Размер: 2.7 GB
Как cкачать? Как скачать Нападение пончиков-убийц через торрент | UTorrent

% Раздел Тема Автор DL S | L
T Фильмы 2016 [DVDrip, WEB-DLRip, HDrip] (DUB, MVO) [ 1.37 GB ] Нападение пончиков-убийц / Attack of the Killer Donuts [2016 WEB-DLRip] Любительский многоголосый [Синема УС] -Lexx- Скачать
1 | 0

28-11-2019 20:33  

Отключить всю рекламу на сайте

    Дорогой пользователь! Огромная просьба, поблагодарите релизера, оцените раздачу и оставьте свои комментарий, если Вы скачали Нападение пончиков-убийц через торрент бесплатно!
    Комментировать посты могут только пользователи прошедшие не сложную регистрацию
    Показать сообщения:    

    Нападение пончиков-убийц через торрент
    Скачать бесплатно Нападение пончиков-убийц
    Нападение пончиков-убийц скачать торрент
    Нападение пончиков-убийц смотреть онлайн
    Cкачать фильм Нападение пончиков-убийц бесплатно
    Нападение пончиков-убийц скачать торрент в хорошем качестве
    Нападение пончиков-убийц смотреть онлайн бесплатно в хорошем качестве


    Вы не можете начинать темы
    Вы не можете отвечать на сообщения
    Вы не можете редактировать свои сообщения
    Вы не можете удалять свои сообщения
    Вы не можете голосовать в опросах
    Вы не можете прикреплять файлы к сообщениям
    Вы можете скачивать файлы