Всегда рабочее зеркало без VPN и Proxy просто перед .vidak.icu напиши любое слово или цифру, Пример http://iydi.vidak.icu

MVO

Лицензия

1 сезон

1

1 сезон

iTunes

1 сезон

13

1 сезон

Deluxe

pack

Рекомендуем

Пиратка

30

ВАЖНО

RePack

MK11

RePack

jed

RePack

fifa19

RePack

RDR2

RePack

NEED FOR SPEED™ PAYBACK

Кинопоиск HD

6 сезон

 Острые козырьки 6 сезон

Все сериалы

все сериалы на PB.wtf

RePack

FAR CRY 5
  
Magnet ссылка

Нападение пончиков-убийц / Attack of the Killer Donuts (Скотт Вилер) [2016, ужасы, комедия, WEB-DLRip] Любительский многоголосый [Синема УС] pb.wtf

Нападение пончиков-убийц через торрент pb.wtf

Размер: 1.37 GB | Добавлен: 5 лет 1 мес. назад | Торрент скачан:120 раз
Смотреть онлайн Нападение пончиков-убийц | Скачать    Ребята, помогите собрать деньги на оплату серверов!!!

09-05-2017 18:35 Нападение пончиков-убийц Скачать торрент  

Нападение пончиков-убийц / Attack of the Killer Donuts

Год выпуска: 2016
Страна: США
Жанр: ужасы, комедия
Продолжительность: 01:26:37
Перевод: Любительский многоголосый [Синема УС]
Примечание: Присутствует реклама!
Режиссер: Скотт Вилер
В ролях:

Фредрик Барнс (Officer Hammerstein), Кайла Комптон (Michelle Kester), Лорен Комптон (Veronica), Крис Де Кристофер (Cliff Burbank), Элисон Инглэнд (Mrs. Scolari), Филлип Фэллон (Brandon), Майкл Гальо (Mr. Richards), Аарон Гробен (Bobby), Ben Heyman (Howard), Си Томас Хауэлл (Officer Roberts), Кристин Нгуйен (Martha), Грант Остин О’Коннелл (Conrad)
Описание:
Некая химическая субстанция превращает обычные пончики в кровожадных убийц, и теперь троим друзьям предстоит спасать родной городок от плотоядных кондитерских изделий.
Рейтинг:

Качество: WEB-DLRip
Формат: AVI
Видео: XviD, 720x400 (16:9), 1776 kbps, 23,976 fps, 0,257 bpp
Аудио: AC3 / 2.0 / 48 kHz / 384 kbps /

General
Complete name : E:\Torrent\film\Attack.Of.The.Killer.Donuts.2016.P.WEB-DLRip.14OOMB_KOSHARA.avi
Format : AVI
Format/Info : Audio Video Interleave
File size : 1.37 GiB
Duration : 1 h 26 min
Overall bit rate : 2 259 kb/s
Writing application : VirtualDubMod 1.5.10.2 (build 2540/release)
Writing library : VirtualDubMod build 2540/release

Video
ID : 0
Format : MPEG-4 Visual
Format profile : Advanced Simple@L5
Format settings, BVOP : 2
Format settings, QPel : No
Format settings, GMC : No warppoints
Format settings, Matrix : Default (MPEG)
Codec ID : XVID
Codec ID/Hint : XviD
Duration : 1 h 26 min
Bit rate : 1 777 kb/s
Width : 720 pixels
Height : 400 pixels
Display aspect ratio : 16:9
Frame rate : 23.976 (24000/1001) FPS
Color space : YUV
Chroma subsampling : 4:2:0
Bit depth : 8 bits
Scan type : Progressive
Compression mode : Lossy
Bits/(Pixel*Frame) : 0.257
Stream size : 1.08 GiB (79%)
Writing library : XviD 1.2.1 (UTC 2008-12-04)

Audio
ID : 1
Format : AC-3
Format/Info : Audio Coding 3
Mode extension : CM (complete main)
Format settings, Endianness : Big
Codec ID : 2000
Duration : 1 h 26 min
Bit rate mode : Constant
Bit rate : 384 kb/s
Channel(s) : 2 channels
Channel positions : Front: L R
Sampling rate : 48.0 kHz
Frame rate : 31.250 FPS (1536 spf)
Compression mode : Lossy
Stream size : 238 MiB (17%)
Alignment : Split accross interleaves
pb.wtf



Скачать Нападение пончиков-убийц через торрент http://i4.imageban.ru/out/2017/05/09/514fe3027b10cb5f018366931581b940.jpg Скачать, смотреть онлайн Нападение пончиков-убийц бесплантно в хорошем качестве Описание: Некая химическая субстанция превращает обычные пончики в кровожадных убийц, и теперь троим друзьям предстоит спасать родной ... 7.1 10 13
Info! Золотая раздача, скачанное не засчитывается.
Торрент: Зарегистрирован [2017-05-09 18:35] · скачан: 120 раз
Статус: T временная
Размер: 1.37 GB
Как cкачать? Как скачать Нападение пончиков-убийц через торрент | UTorrent

% Раздел Тема Автор DL S | L
T Релизы по Парсеру [Игры, Сериалы и Фильмы и другое...] [ 2.7 GB ] Нападение пончиков-убийц / Attack of the Killer Donuts [2016 WEB-DL 720p] Любительский многоголосый [Синема УС] -Lexx- Скачать
1 | 0

28-11-2019 20:33  

Отключить всю рекламу на сайте

09-05-2017 19:43 Нападение пончиков-убийц Скачать торрент  

Мама
pb.wtf



09-05-2017 21:21 Нападение пончиков-убийц Скачать торрент  

агонь,))) кликнул по фотке усатого актера и попал на кинопоиск, а там все фильмы с ним(кроч есть че посмотреть))), спасибо за оформление раздачи отдельноеpb.wtf



10-05-2017 04:53 Нападение пончиков-убийц Скачать торрент  

agrubtionxc писал(а):

агонь,))) кликнул по фотке усатого актера и попал на кинопоиск, а там все фильмы с ним(кроч есть че посмотреть))), спасибо за оформление раздачи отдельное

Да мне с бодуна такое не приснитсяpb.wtf



10-05-2017 10:01 Нападение пончиков-убийц Скачать торрент  

цикл завершен, начинается десятилетие трешняков?!pb.wtf



10-05-2017 12:06 Нападение пончиков-убийц Скачать торрент  

kuk3300 писал(а):

agrubtionxc писал(а):

агонь,))) кликнул по фотке усатого актера и попал на кинопоиск, а там все фильмы с ним(кроч есть че посмотреть))), спасибо за оформление раздачи отдельное

Да мне с бодуна такое не приснится

Ты столько не выпьешь. А они походу еще как Тревор - бензинчиком догоняются.pb.wtf



10-05-2017 14:50 Нападение пончиков-убийц Скачать торрент  

С одной стороны конечно хорошо что я не сижу на наркоте, а с другой такие фильмы смотреть вменяемым по моему нереально pb.wtf



10-05-2017 15:18 Нападение пончиков-убийц Скачать торрент  

Кому интересно такое - посмотрите ещё "Нападение помидоров-убийц", весёлая вещь...pb.wtf



10-05-2017 20:01 Нападение пончиков-убийц Скачать торрент  

korotkij писал(а):

Кому интересно такое - посмотрите ещё "Нападение помидоров-убийц", весёлая вещь...

ну это уже классика pb.wtf



    Дорогой пользователь! Огромная просьба, поблагодарите релизера, оцените раздачу и оставьте свои комментарий, если Вы скачали Нападение пончиков-убийц через торрент бесплатно!
    Комментировать посты могут только пользователи прошедшие не сложную регистрацию
    Показать сообщения:    

    Нападение пончиков-убийц через торрент
    Скачать бесплатно Нападение пончиков-убийц
    Нападение пончиков-убийц скачать торрент
    Нападение пончиков-убийц смотреть онлайн
    Cкачать фильм Нападение пончиков-убийц бесплатно
    Нападение пончиков-убийц скачать торрент в хорошем качестве
    Нападение пончиков-убийц смотреть онлайн бесплатно в хорошем качестве


    Вы не можете начинать темы
    Вы не можете отвечать на сообщения
    Вы не можете редактировать свои сообщения
    Вы не можете удалять свои сообщения
    Вы не можете голосовать в опросах
    Вы не можете прикреплять файлы к сообщениям
    Вы можете скачивать файлы