Ссылка на приватное зеркало всего за 1$. Внимание количество ограничено!!!

iTunes

iTunes

iTunes

1

iTunes

iTunes

iTunes

iTunes

iTunes

30
pack

$ от Little Big

ВАЖНО

!!Акция!!

Alien_RageХит недели

RePack

Resident Evil 21

ИГРА 18+

pack

RePack

jed

!!Акция!!

Alien_Rage

RePack

fifa19

RePack

Assassins Creed: Odyssey

RePack

NEED FOR SPEED™ PAYBACK

4 сезон

9 сезон

Бесстыжие 9 сезон

Все сериалы

все сериалы на PB.wtf

RePack

FAR CRY 5
  

Ирис / Iris (Жалиль Леспер) [2016, Триллер, WEB-DL 720p] VO [BadBajo] pb.wtf

Ирис через торрент pb.wtf

Размер: 2.44 GB | Добавлен: 3 года 2 мес. назад | Торрент скачан:96 раз
Скачать  

09-05-2017 19:58 Ирис Скачать торрент  

Ирис / Iris
Год выпуска: 2016
Страна: Франция, Бельгия
Жанр: Триллер
Продолжительность: 01:38:47
Перевод: Любительский (одноголосый) - [BadBajo]
Субтитры: Французские, английские

Режиссер: Жалиль Леспер

rating

В ролях:

Ромен Дюрис, Шарлотта Ле Бон, Жалиль Леспер, Камилль Коттен, Адель Беншериф, Софи Вербек, Элен Барбери, Жалис Лалег, Виолетта Санчес, Джина Хэллер

Описание:

У преуспевающего банкира пропадает жена. В день исчезновения ему звонит похититель и требует выкуп. Несмотря на угрозы похитителя молчать, банкир обращается в полицию и те начинают поиск преступника. Однако, похититель сам становится жертвой хитроумного плана

Качество: WEB-DL 720p
Формат: MKV
Видео кодек: H.264
Аудио кодек: AC3

Видео: MPEG-4 AVC, 1280x538, 2695 Кbit/s, 24.000 fps, 0, 0.163 bpp
Аудио#1: 48 kHz, AC3, 5.1, 384 Kbps | BadBajo | RUS |
Аудио#2: 48 kHz, AC3, 5.1, 384 Kbps | Оригинал | FRE |

скриншот   скриншот   скриншот   скриншот   скриншот  

General
Unique ID : 196079087116852686937255603009105901025 (0x9383756286CCAEC7A38252C6130B35E1)
Complete name : F:VideoIris.2016.WEB-DL.720p.ExKinoRay.mkv
Format : Matroska
Format version : Version 4 / Version 2
File size : 2.44 GiB
Duration : 1 h 38 min
Overall bit rate mode : Variable
Overall bit rate : 3 533 kb/s
Encoded date : UTC 2017-05-09 09:37:52 / UTC 2017-05-02T07:35:59Z
Writing application : mkvmerge v11.0.0 ('Alive') 64bit
Writing library : libebml v1.3.4 + libmatroska v1.4.5 / Lavf57.7.2

Video
ID : 1
Format : AVC
Format/Info : Advanced Video Codec
Format profile : Main@L4.1
Format settings, CABAC : Yes
Format settings, ReFrames : 4 frames
Codec ID : V_MPEG4/ISO/AVC
Duration : 1 h 38 min
Bit rate mode : Variable
Bit rate : 2 695 kb/s
Maximum bit rate : 40.0 Mb/s
Width : 1 280 pixels
Height : 538 pixels
Display aspect ratio : 2.40:1
Frame rate mode : Constant
Frame rate : 24.000 FPS
Color space : YUV
Chroma subsampling : 4:2:0
Bit depth : 8 bits
Scan type : Progressive
Bits/(Pixel*Frame) : 0.163
Stream size : 1.86 GiB (76%)
Language : French
Default : Yes
Forced : No
Color range : Limited
Color primaries : BT.709
Transfer characteristics : BT.709
Matrix coefficients : BT.709
Statistics Tags Issue : mkvmerge v11.0.0 ('Alive') 64bit 2017-05-09 09:37:52 / mkvmerge v11.0.0 ('Alive') 64bit 2017-05-09 09:37:52 / UTC 2017-05-02T07:35:59Z
FromStats_BitRate : 2762766
FromStats_Duration : 01:38:46.167000000
FromStats_FrameCount : 142228
FromStats_StreamSize : 2046576823

Audio #1
ID : 2
Format : AC-3
Format/Info : Audio Coding 3
Format settings, Endianness : Big
Codec ID : A_AC3
Duration : 1 h 38 min
Bit rate mode : Constant
Bit rate : 384 kb/s
Channel(s) : 6 channels
Channel positions : Front: L C R, Side: L R, LFE
Sampling rate : 48.0 kHz
Frame rate : 31.250 FPS (1536 spf)
Bit depth : 16 bits
Compression mode : Lossy
Stream size : 271 MiB (11%)
Title : AVO
Language : Russian
Service kind : Complete Main
Default : Yes
Forced : No
Statistics Tags Issue : mkvmerge v11.0.0 ('Alive') 64bit 2017-05-09 09:37:52 / mkvmerge v11.0.0 ('Alive') 64bit 2017-05-09 09:37:52 / UTC 2017-05-02T07:35:59Z
FromStats_BitRate : 384000
FromStats_Duration : 01:38:45.984000000
FromStats_FrameCount : 185187
FromStats_StreamSize : 284447232

Audio #2
ID : 3
Format : E-AC-3
Format/Info : Enhanced Audio Coding 3
Format settings, Endianness : Big
Codec ID : A_EAC3
Duration : 1 h 38 min
Bit rate mode : Constant
Bit rate : 384 kb/s
Channel(s) : 6 channels
Channel positions : Front: L C R, Side: L R, LFE
Sampling rate : 48.0 kHz
Frame rate : 187.500 FPS (256 spf)
Compression mode : Lossy
Stream size : 271 MiB (11%)
Title : Original
Language : French
Service kind : Complete Main
Default : No
Forced : No
Statistics Tags Issue : mkvmerge v11.0.0 ('Alive') 64bit 2017-05-09 09:37:52 / mkvmerge v11.0.0 ('Alive') 64bit 2017-05-09 09:37:52 / UTC 2017-05-02T07:35:59Z
FromStats_BitRate : 384000
FromStats_Duration : 01:38:46.304000000
FromStats_FrameCount : 185197
FromStats_StreamSize : 284462592

Text #1
ID : 4
Format : UTF-8
Codec ID : S_TEXT/UTF8
Codec ID/Info : UTF-8 Plain Text
Title : Full
Language : French
Default : No
Forced : No
Statistics Tags Issue : mkvmerge v11.0.0 ('Alive') 64bit 2017-05-09 09:37:52 / mkvmerge v11.0.0 ('Alive') 64bit 2017-05-09 09:37:52 / UTC 2017-05-02T07:35:59Z
FromStats_BitRate : 30
FromStats_Duration : 01:38:28.042000000
FromStats_FrameCount : 965
FromStats_StreamSize : 22356

Text #2
ID : 5
Format : UTF-8
Codec ID : S_TEXT/UTF8
Codec ID/Info : UTF-8 Plain Text
Title : Full
Language : English
Default : No
Forced : No
Statistics Tags Issue : mkvmerge v11.0.0 ('Alive') 64bit 2017-05-09 09:37:52 / mkvmerge v11.0.0 ('Alive') 64bit 2017-05-09 09:37:52 / UTC 2017-05-02T07:35:59Z
FromStats_BitRate : 25
FromStats_Duration : 01:37:22.900000000
FromStats_FrameCount : 697
FromStats_StreamSize : 18953

pb.wtf



Скачать Ирис через торрент http://s010.radikal.ru/i311/1705/d2/0f4d7205cd10.jpg Скачать фильм Ирис через торрент бесплантно в хорошем качестве Описание: У преуспевающего банкира пропадает жена. В день исчезновения ему звонит похититель и требует выкуп. Несмотря на угрозы похитителя ... 10 10 5
Торрент: Зарегистрирован [2017-05-09 19:58] · скачан: 96 раз
Статус: T временная
Размер: 2.44 GB
Как cкачать? Как скачать Ирис через торрент | qTorrent

% Раздел Тема Автор DL S | L
T Фильмы 2016 (Звук TS, Cam, VO, DVO) [ 1.47 GB ] Ирис / Iris [ 2016 WEB-DLRip] [VO] от ExKinoRay Enigma2010 Скачать
1 | 0
T Релизы по Парсеру [Игры, Сериалы и Фильмы и другое...] [ 1.46 GB ] Дитя Осириса: научная выпуск 1 / Science Fiction Volume One: The Osiris Child [2016 WEB-DLRip] MVO -Lexx- Скачать
2 | 0
T Релизы по Парсеру [Игры, Сериалы и Фильмы и другое...] [ 1.36 GB ] Дитя Осириса: научная выпуск 1 / Science Fiction Volume One: The Osiris Child [2016 HDRip] MVO [GreenРай Studio] bober100 Скачать
2 | 0
T Релизы по Парсеру [Игры, Сериалы и Фильмы и другое...] [ 3.26 GB ] Дитя Осириса: научная выпуск 1 / Science Fiction Volume One: The Osiris Child [2016 WEB-DL 720p] MVO -Lexx- Скачать
1 | 0
# Фильмы [HD 720p, 1080p] (Хороший звук DUB, MVO) [ 2.89 GB ] Дитя Осириса: научная выпуск 1 / Science Fiction Volume One: The Osiris Child [2016 BDRip 720p] MVO [GreenРай Studio] bober100 Скачать
1 | 0
T Фильмы 2016 (Звук TS, Cam, VO, DVO) [ 1.55 GB ] Ирис / Iris [ 2016 WEB-DLRip-AVC] [VO] от ExKinoRay Enigma2010 Скачать
1 | 0
T Фильмы (WEB-DL 720p, 1080p) [ 7.32 GB ] Ирис / Iris [2016 WEBRip 1080p] VO [BadBajo] -Lexx- Скачать
1 | 0

28-11-2019 20:33  

Отключить всю рекламу на сайте

    Дорогой пользователь! Огромная просьба, поблагодарите релизера, оцените раздачу и оставьте свои комментарий, если Вы скачали Ирис через торрент бесплатно! Внесите свою лепту в развитие PiratBit!
    Комментировать посты могут только пользователи прошедшие не сложную регистрацию
    Показать сообщения:    

    Ирис через торрент
    Скачать бесплатно Ирис
    Ирис скачать торрент
    Ирис смотреть онлайн
    Cкачать фильм Ирис бесплатно
    Ирис скачать торрент в хорошем качестве
    Ирис смотреть онлайн бесплатно в хорошем качестве


    Вы не можете начинать темы
    Вы не можете отвечать на сообщения
    Вы не можете редактировать свои сообщения
    Вы не можете удалять свои сообщения
    Вы не можете голосовать в опросах
    Вы не можете прикреплять файлы к сообщениям
    Вы можете скачивать файлы