Ссылка на приватное зеркало нашего сайта всего за 1$. Внимание количество ограничено!!!

2 сезон

iTunes

1 сезон

1

2 сезон

2 сезон

iTunes

1 сезон

RePack

30

Ultimate

ВАЖНО

ИГРА 18+

pack

RePack

MK11
pack

Забери бонус

RePack

jed

!!Акция!!

Alien_Rage

RePack

fifa19

RePack

Assassins Creed: Odyssey

RePack

NEED FOR SPEED™ PAYBACK

4 сезон

9 сезон

Бесстыжие 9 сезон

Все сериалы

все сериалы на PB.wtf

RePack

FAR CRY 5
  

Последний человек на Земле / The Last Man on Earth / Сезон 3 / Серии 1-18 из 18 (Фил Лорд, Кристофер Миллер) [2017, комедия, HDTVRip] MVO [Jaskier] pb.wtf

Последний человек на Земле через торрент pb.wtf

Размер: 3.53 GB | Добавлен: 3 года 6 мес. назад | Торрент скачан:28 раз
Скачать  

09-05-2017 20:19 Последний человек на Земле Скачать торрент  

Последний человек на Земле / The Last Man on Earth
Год выпуска: 2017
Страна: США
Жанр: комедия
Всего серий: 18
Продолжительность: 18 х ~00:21:00
Перевод: Профессиональный (многоголосый) -
Субтитры: отсутствуют

Режиссер: Фил Лорд, Кристофер Миллер

rating

В ролях:

Уилл Форте, Кристен Шол, Александра Даддарио, Клеопатра Коулман, Дженьюэри Джонс, Мэл Родригез и др

Описание:

Фил Миллер последний человек на Земле в 2022 году, который ищет по всем США любые признаки человеческой жизни после неизвестного события, уничтожившего всех людей на Земле, включая его семью и сотрудников банка, где он работал.

Качество: HDTVRip
Формат: AVI
Видео кодек: XviD
Аудио кодек: AC3/MP3

Видео: 720x400 (1.80:1), 23.976 fps, XviD build 50 ~990 kbps avg, 0.144 bit/pixel
Аудио#1: Rus: 48 kHz, AC3 Dolby Digital, 2/0 (L,R) ch, ~192 kbps | Jaskier
Аудио#2: Eng: 48 kHz, MPEG Layer 3, 2 ch, ~128.00 kbps avg

скриншот   скриншот   скриншот   скриншот  

Общее
Полное имя : D:\The Last Man on Earth. Season 3 (HDTVRip l SD l Jaskier)\The.Last.Man.On.Earth.S03E01.HDTVRip.XviD.Jaskier.Rus.Eng.avi
Формат : AVI
Формат/Информация : Audio Video Interleave
Размер файла : 200 Мбайт
Продолжительность : 21 м. 7 с.
Общий поток : 1326 Кбит/сек
Программа кодирования : VirtualDubModRus 1.5.10.2 (build 2540/release)
Библиотека кодирования : VirtualDubMod build 2540/release

Видео
Идентификатор : 0
Формат : MPEG-4 Visual
Профиль формата : Advanced Simple@L5
Параметр BVOP формата : 1
Параметр QPel формата : Нет
Параметр GMC формата : Без точки перехода
Параметр матрицы формата : Default (H.263)
Идентификатор кодека : XVID
Идентификатор кодека/Подсказка : XviD
Продолжительность : 21 м. 7 с.
Битрейт : 992 Кбит/сек
Ширина : 720 пикселей
Высота : 400 пикселей
Соотношение сторон : 16:9
Частота кадров : 23,976 (23976/1000) кадра/сек
Цветовое пространство : YUV
Субдискретизация насыщенности : 4:2:0
Битовая глубина : 8 бит
Тип развёртки : Прогрессивная
Метод сжатия : С потерями
Бит/(Пиксели*Кадры) : 0.144
Размер потока : 150 Мбайт (75%)
Библиотека кодирования : XviD 1.2.1 (UTC 2008-12-04)

Аудио #1
Идентификатор : 1
Формат : AC-3
Формат/Информация : Audio Coding 3
Расширение режима : CM (complete main)
Параметр Endianness формата : Big
Идентификатор кодека : 2000
Продолжительность : 21 м. 7 с.
Вид битрейта : Постоянный
Битрейт : 192 Кбит/сек
Каналы : 2 канала
Расположение каналов : Front: L R
Частота : 48,0 КГц
Частота кадров : 31,250 кадров/сек (1536 spf)
Метод сжатия : С потерями
Размер потока : 29,0 Мбайт (14%)
Выравнивание : Разделение по промежуткам
Продолжительность промежутка : 42 мс. (1,00 видеокадр)
Время предзагрузки промежутка : 500 мс.

Аудио #2
Идентификатор : 2
Формат : MPEG Audio
Версия формата : Version 1
Профиль формата : Layer 3
Идентификатор кодека : 55
Идентификатор кодека/Подсказка : MP3
Продолжительность : 21 м. 7 с.
Вид битрейта : Постоянный
Битрейт : 128 Кбит/сек
Каналы : 2 канала
Частота : 48,0 КГц
Метод сжатия : С потерями
Размер потока : 19,3 Мбайт (10%)
Выравнивание : Соединение по промежуткам
Продолжительность промежутка : 42 мс. (1,00 видеокадр)
Время предзагрузки промежутка : 504 мс.
Библиотека кодирования : LAME3.98r
Настройки программы : -m s -V 4 -q 0 -lowpass 17 -b 128

pb.wtf



Скачать Последний человек на Земле через торрент http://s019.radikal.ru/i618/1609/87/be51dfb9d7f5.png Скачать фильм Последний человек на Земле через торрент бесплантно в хорошем качестве Описание: Фил Миллер последний человек на Земле в 2022 году, который ищет по всем США любые признаки человеческой жизни после неизвестного ... 10 10 5
Торрент: Зарегистрирован [2017-05-09 20:19] · скачан: 28 раз
Статус: √ проверено
Размер: 3.53 GB
Как cкачать? Как скачать Последний человек на Земле через торрент | qTorrent

% Раздел Тема Автор DL S | L
Зарубежные сериалы [ 7.34 GB ] Последний человек на Земле / The Last Man on Earth / Сезон: 3 / Серии 1-18 из 18 [2016 WEB-DLRip-AVC] MVO [BaibaKo] GEKADOL Скачать
1 | 0

28-11-2019 20:33  

Отключить всю рекламу на сайте

    Дорогой пользователь! Огромная просьба, поблагодарите релизера, оцените раздачу и оставьте свои комментарий, если Вы скачали Последний человек на Земле через торрент бесплатно! Внесите свою лепту в развитие PiratBit!
    Комментировать посты могут только пользователи прошедшие не сложную регистрацию
    Показать сообщения:    

    Последний человек на Земле через торрент
    Скачать бесплатно Последний человек на Земле
    Последний человек на Земле скачать торрент
    Последний человек на Земле смотреть онлайн
    Cкачать фильм Последний человек на Земле бесплатно
    Последний человек на Земле скачать торрент в хорошем качестве
    Последний человек на Земле смотреть онлайн бесплатно в хорошем качестве


    Вы не можете начинать темы
    Вы не можете отвечать на сообщения
    Вы не можете редактировать свои сообщения
    Вы не можете удалять свои сообщения
    Вы не можете голосовать в опросах
    Вы не можете прикреплять файлы к сообщениям
    Вы можете скачивать файлы