Ссылка на приватное зеркало всего за 1$. Внимание количество ограничено!!!

iTunes

iTunes

iTunes

1

iTunes

iTunes

iTunes

iTunes

iTunes

30
pack

Новость дня

ВАЖНО

!!Акция!!

Alien_RageХит недели

RePack

Resident Evil 21

ИГРА 18+

pack

RePack

jed

!!Акция!!

Alien_Rage

RePack

fifa19

RePack

Assassins Creed: Odyssey

RePack

NEED FOR SPEED™ PAYBACK

4 сезон

9 сезон

Бесстыжие 9 сезон

Все сериалы

все сериалы на PB.wtf

RePack

FAR CRY 5
  

Дети 90-х (Максим Юсупов, Михаил Носко) [2015, Криминал, драма, WEBRip] pb.wtf

Дети 90-х через торрент pb.wtf

Раздают: 4 [ 38 KB/s ]
Размер: 690 MB | Добавлен: 1 мес. 20 д. назад | Торрент скачан:77 раз
Скачать  

10-05-2017 08:30 Дети 90-х Скачать торрент  

Дети 90-х
Год выпуска: 2015
Страна: Россия
Жанр: Криминал, драма
Продолжительность: 01:23:04
Перевод: Не требуется
Субтитры: отсутствуют

Режиссер: Максим Юсупов, Михаил Носко



В ролях: Никита Юдаев, Максим Юсупов, Михаил Носко, Вадим Леонтьев, Сергей Степанов

Описание: Эта история начинается в далёком 98-м году, когда её главные герои были еще детьми. Случайно оказавшись на месте расправы — они спасают жизнь человека. Спустя 15 лет после этого случая друзья оказываются вовлеченными в опасную игру, на кону которой стоит жизнь, волею судьбы автором их неприятностей оказывается некогда спасённый ими мужчина…

Качество: WEBRip
Формат: AVI
Видео кодек: XviD
Аудио кодек: MP3

Видео: 656x368 (1.78:1), 24.000 fps, XviD build 73 ~1024 kbps avg, 0.18 bit/pixel
Аудио#1: 44.100 kHz, MPEG Layer 3, 2 ch, ~128.00 kbps avg
скриншот   скриншот   скриншот   скриншот  





General
Complete name : E:Изготовление риповDeti 90-x 2015 700mb WEBRip by shkiper.avi
Format : AVI
Format/Info : Audio Video Interleave
File size : 690 MiB
Duration : 1h 23mn
Overall bit rate : 1 162 Kbps
Writing application : VirtualDubMod 1.5.10.3 | www.virtualdub-fr.org || (build 2550/release)
Writing library : VirtualDubMod build 2550/release

Video
ID : 0
Format : MPEG-4 Visual
Format profile : Advanced Simple@L5
Format settings, BVOP : 1
Format settings, QPel : No
Format settings, GMC : No warppoints
Format settings, Matrix : Custom
Codec ID : XVID
Codec ID/Hint : XviD
Duration : 1h 23mn
Bit rate : 1 024 Kbps
Width : 656 pixels
Height : 368 pixels
Display aspect ratio : 16:9
Frame rate : 24.000 fps
Color space : YUV
Chroma subsampling : 4:2:0
Bit depth : 8 bits
Scan type : Progressive
Compression mode : Lossy
Bits/(Pixel*Frame) : 0.177
Stream size : 609 MiB (88%)
Writing library : XviD 73

Audio
ID : 1
Format : MPEG Audio
Format version : Version 1
Format profile : Layer 3
Mode : Joint stereo
Mode extension : MS Stereo
Codec ID : 55
Codec ID/Hint : MP3
Duration : 1h 23mn
Bit rate mode : Constant
Bit rate : 128 Kbps
Channel(s) : 2 channels
Sampling rate : 44.1 KHz
Compression mode : Lossy
Stream size : 76.1 MiB (11%)
Alignment : Split accross interleaves
Interleave, duration : 42 ms (1.00 video frame)
Interleave, preload duratio : 500 ms
Writing library : LAME3.99r
Encoding settings : -m j -V 4 -q 2 -lowpass 17 -b 128

pb.wtf



Скачать Дети 90-х через торрент http://pic1.kartinco.top/images/10/q4xln.jpg Скачать фильм Дети 90-х через торрент бесплантно в хорошем качестве Описание: Эта история начинается в далёком 98-м году, когда её главные герои были еще детьми. Случайно оказавшись на месте расправы — они ... 7.6 10 14
Торрент: Зарегистрирован [2020-04-05 09:21] · скачан: 77 раз
Статус: T временная
Размер: 690 MB
Как cкачать? Как скачать Дети 90-х через торрент | qTorrent

% Раздел Тема Автор DL S | L
T Наши новые фильмы 2015 [ 1.37 GB ] Дети 90-х [2015 WEBRip] Russian Mafia Скачать
1 | 0
T Наши фильмы (HD, WEB-DL 720p, 1080p) [ 1.26 GB ] Дети 90-х [2015 WEBRip 720p] Russian Mafia Скачать
1 | 0


Последний раз редактировалось: bober100 (2020-04-05 09:21), всего редактировалось 1 раз

28-11-2019 20:33  

Отключить всю рекламу на сайте

10-05-2017 15:41 Дети 90-х Скачать торрент  

хороший фильмpb.wtf



10-05-2017 16:22 Дети 90-х Скачать торрент  

бредpb.wtf



10-05-2017 22:11 Дети 90-х Скачать торрент  

А с каких пор "дети 90-х" это петухи, родившиеся в 90-м году? Ему в 1998-м -восемь лет, что это за чепушило? Что за бред, подмена понятий. Скоро дети 2000-х будут клепать кинохи, как они с Тимати начинали...Бррр.pb.wtf



11-05-2017 06:25 Дети 90-х Скачать торрент  

dron928 писал(а):

хороший фильм

а по мне - УГ, ни актеров, ни режиссеров на площадке не было!pb.wtf



11-05-2017 10:40 Дети 90-х Скачать торрент  

Фильм - полный шлак, "актеры" - ноль повдоль, сюжет - типа будни "реальных" пацанов... детские лица со взрослыми наклонностями.pb.wtf



    Дорогой пользователь! Огромная просьба, поблагодарите релизера, оцените раздачу и оставьте свои комментарий, если Вы скачали Дети 90-х через торрент бесплатно! Внесите свою лепту в развитие PiratBit!
    Комментировать посты могут только пользователи прошедшие не сложную регистрацию
    Показать сообщения:    

    Дети 90-х через торрент
    Скачать бесплатно Дети 90-х
    Дети 90-х скачать торрент
    Дети 90-х смотреть онлайн
    Cкачать фильм Дети 90-х бесплатно
    Дети 90-х скачать торрент в хорошем качестве
    Дети 90-х смотреть онлайн бесплатно в хорошем качестве


    Вы не можете начинать темы
    Вы не можете отвечать на сообщения
    Вы не можете редактировать свои сообщения
    Вы не можете удалять свои сообщения
    Вы не можете голосовать в опросах
    Вы не можете прикреплять файлы к сообщениям
    Вы можете скачивать файлы