Ссылка на приватное зеркало нашего сайта всего за 1$. Внимание количество ограничено!!!

2 сезон

iTunes

1 сезон

1

iTunes

iTunes

iTunes

1 сезон

RePack

30

ИГРА 18+

pack

ВАЖНО

!!Акция!!

Alien_RageХит недели

RePack

MK11
pack

Забери бонус

RePack

jed

!!Акция!!

Alien_Rage

RePack

fifa19

RePack

Assassins Creed: Odyssey

RePack

NEED FOR SPEED™ PAYBACK

4 сезон

9 сезон

Бесстыжие 9 сезон

Все сериалы

все сериалы на PB.wtf

RePack

FAR CRY 5
  

Молчание / Silence (Мартин Скорсезе) [2016, драма, приключения, история, BDRip 720p] Дубляж - [Лицензия / iTunes] pb.wtf

Молчание через торрент pb.wtf

Размер: 10.63 GB | Добавлен: 3 года 5 мес. назад | Торрент скачан:314 раз
Скачать  

10-05-2017 13:20 Молчание Скачать торрент  


Молчание / Silence
««Sometimes silence is the deadliest sound»»

ИНФОРМАЦИЯ:
Год выпуска:2016
Страна: США, Тайвань, Мексика
Жанр: драма, приключения, история
Продолжительность: 02:41:09
Перевод: Дубляж - [Лицензия / iTunes]
Субтитры: русские (Forced), русские (Full), английские (Full), английские (SDH),
Режиссер: Мартин Скорсезе

В Ролях:


Эндрю Гарфилд (Rodrigues), Адам Драйвер (Garupe), Лиам Нисон (Ferreira), Таданобу Асано (Interpreter), Киран Хайндс (Father Valignano), Иссэй Огата (Old Samurai / Inoue), Синья Цукамото (Mokichi), Ёси Оида (Ichizo), Ёсукэ Кубодзука (Kichijiro), Каору Эндо (Unzen Samurai (Uneme)), Диего Кальдерон (Prisoner Augustinian Friar #2), Рафаэль Кэйдинг (Prisoner Augustinian Friar #1)

ОПИСАНИЕ:
В XVII веке два священника-иезуита подвергаются насилию и преследованиям во время странствия по Японии, куда они приехали с целью найти своего наставника и распространять христианское Евангелие.

  • Мировая премьера:29 ноября 2016

    ТЕХ.ДАННЫЕ:
    Качество: BDRip 720p
    Формат: MKV
    Видео: AVC, 1280x536 (2.40:1), 7545 kbps, 23,976 fps, 0,459 bpp
    Аудио №1: русский / AC3 / 5.1 / 48 kHz / 384 kbps / ||
    Аудио №2: английский / DTS / 5.1 / 48 kHz / 1509 kbps / 24 bit
    Навигация по главам: есть


    General
    Unique ID : 237919269463761220460837604049421086768 (0xB2FD95A47592DBCAAC8E93B47E5C3030)
    Complete name : W:\Торенты\Silence.2016.BDRip.720p.mkv
    Format : Matroska
    Format version : Version 2
    File size : 10.6 GiB
    Duration : 2 h 41 min
    Overall bit rate : 9 430 kb/s
    Encoded date : UTC 2017-05-10 10:01:11
    Writing application : mkvmerge v4.0.0 ('The Stars were mine') сборка от Jun 6 2010 16:18:42
    Writing library : libebml v1.0.0 + libmatroska v1.0.0
    IsTruncated : Yes

    Video
    ID : 1
    Format : AVC
    Format/Info : Advanced Video Codec
    Format profile : High@L4.1
    Format settings, CABAC : Yes
    Format settings, ReFrames : 12 frames
    Codec ID : V_MPEG4/ISO/AVC
    Duration : 2 h 41 min
    Bit rate : 7 545 kb/s
    Width : 1 280 pixels
    Height : 536 pixels
    Display aspect ratio : 2.40:1
    Frame rate mode : Constant
    Frame rate : 23.976 (23976/1000) FPS
    Color space : YUV
    Chroma subsampling : 4:2:0
    Bit depth : 8 bits
    Scan type : Progressive
    Bits/(Pixel*Frame) : 0.459
    Stream size : 8.27 GiB (78%)
    Writing library : x264 core 148 r2762+56 6284cf3 t_mod_Custom [8-bit@all X86_64]
    Encoding settings : cabac=1 / ref=12 / deblock=1:-3:-3 / analyse=0x3:0x133 / me=umh / subme=10 / psy=1 / fade_compensate=0.00 / psy_rd=1.00:0.05 / mixed_ref=1 / me_range=32 / chroma_me=1 / trellis=2 / 8x8dct=1 / cqm=0 / deadzone=21,11 / fast_pskip=1 / chroma_qp_offset=-3 / threads=6 / lookahead_threads=1 / sliced_threads=0 / nr=0 / decimate=1 / interlaced=0 / bluray_compat=0 / constrained_intra=0 / fgo=0 / bframes=8 / b_pyramid=2 / b_adapt=2 / b_bias=0 / direct=3 / weightb=1 / open_gop=0 / weightp=2 / keyint=250 / keyint_min=23 / scenecut=40 / intra_refresh=0 / rc=2pass / mbtree=0 / bitrate=7545 / ratetol=1.0 / qcomp=0.70 / qpmin=0:0:0 / qpmax=69:69:69 / qpstep=4 / cplxblur=20.0 / qblur=0.5 / ip_ratio=1.30 / pb_ratio=1.20 / aq=3:0.75 / aq-sensitivity=10.00 / aq-factor=1.00:1.00:1.00 / aq2=1:0.60 / aq2-sensitivity=15.00 / aq2-factor=1.00:1.00:1.00 / aq3=3:[0.55:0.55]:[0.55:0.55]:[0.55:0.55]:[0.55:0.55] / aq3-sensitivity=10.00 / aq3-factor=[1.00:1.00]:[1.00:1.00]:[1.00:1.00] / aq3-boundary=192:64:24
    Language : English
    Default : No
    Forced : No
    Color range : Limited
    Matrix coefficients : BT.709

    Audio #1
    ID : 2
    Format : AC-3
    Format/Info : Audio Coding 3
    Mode extension : CM (complete main)
    Format settings, Endianness : Big
    Codec ID : A_AC3
    Duration : 2 h 41 min
    Bit rate mode : Constant
    Bit rate : 384 kb/s
    Channel(s) : 6 channels
    Channel positions : Front: L C R, Side: L R, LFE
    Sampling rate : 48.0 kHz
    Frame rate : 31.250 FPS (1536 spf)
    Compression mode : Lossy
    Stream size : 443 MiB (4%)
    Title : DUB | iTunes
    Language : Russian
    Default : Yes
    Forced : No

    Audio #2
    ID : 3
    Format : DTS
    Format/Info : Digital Theater Systems
    Mode : 16
    Format settings, Endianness : Big
    Codec ID : A_DTS
    Duration : 2 h 41 min
    Bit rate mode : Constant
    Bit rate : 1 509 kb/s
    Channel(s) : 6 channels
    Channel positions : Front: L C R, Side: L R, LFE
    Sampling rate : 48.0 kHz
    Frame rate : 93.750 FPS (512 spf)
    Bit depth : 24 bits
    Compression mode : Lossy
    Stream size : 1.70 GiB (16%)
    Language : English
    Default : No
    Forced : No

    Text #1
    ID : 4
    Format : UTF-8
    Codec ID : S_TEXT/UTF8
    Codec ID/Info : UTF-8 Plain Text
    Title : Forced
    Language : Russian
    Default : Yes
    Forced : No

    Text #2
    ID : 5
    Format : UTF-8
    Codec ID : S_TEXT/UTF8
    Codec ID/Info : UTF-8 Plain Text
    Title : Full
    Language : Russian
    Default : No
    Forced : No

    Text #3
    ID : 6
    Format : UTF-8
    Codec ID : S_TEXT/UTF8
    Codec ID/Info : UTF-8 Plain Text
    Title : Full
    Language : English
    Default : No
    Forced : No

    Text #4
    ID : 7
    Format : UTF-8
    Codec ID : S_TEXT/UTF8
    Codec ID/Info : UTF-8 Plain Text
    Title : SDH
    Language : English
    Default : No
    Forced : No

    Menu
    00:00:00.000 : en:Chapter 1
    00:12:59.904 : en:Chapter 2
    00:22:15.792 : en:Chapter 3
    00:33:21.708 : en:Chapter 4
    00:41:58.974 : en:Chapter 5
    00:51:14.029 : en:Chapter 6
    01:03:15.291 : en:Chapter 7
    01:10:57.127 : en:Chapter 8
    01:22:59.099 : en:Chapter 9
    01:30:19.914 : en:Chapter 10
    01:41:49.645 : en:Chapter 11
    01:47:57.012 : en:Chapter 12
    01:54:46.546 : en:Chapter 13
    02:10:37.162 : en:Chapter 14
    02:19:11.051 : en:Chapter 15
    02:34:22.378 : en:Chapter 16
    02:41:09.242 : en:Chapter 17
    Скриншоты:

    © Оформление by .::Ворон::.
    pb.wtf



  • Скачать Молчание через торрент http://pic.kartinco.top/images/6/ordi9.jpg Скачать фильм Молчание через торрент бесплантно в хорошем качестве Е:В XVII веке два священника-иезуита подвергаются насилию и преследованиям во время странствия по Японии, куда они приехали с целью найти ... 8.6 10 14
    Торрент: Зарегистрирован [2017-05-10 13:20] · скачан: 314 раз
    Статус: √ проверено
    Размер: 10.63 GB
    Как cкачать? Как скачать Молчание через торрент | qTorrent

    % Раздел Тема Автор DL S | L
    Фильмы [HD 720p, 1080p] (Хороший звук DUB, MVO) [ 7.36 GB ] Молчание / The Silence [2019 BDRip 1080p] DUB [SDI Media] bober100 Скачать
    1 | 0
    Фильмы 2019-2020 [DVDrip, WEB-DLRip, HDrip] (DUB, MVO) [ 1.46 GB ] Молчание / The Silence [2019 BDRip] - [SDI Media] Twi7ter Скачать
    13 | 0
    Фильмы 2019-2020 [DVDrip, WEB-DLRip, HDrip] (DUB, MVO) [ 707 MB ] Молчание / The Silence [2019 HDRip "SDI Media"] coc900 Скачать
    1 | 0
    Фильмы 2019-2020 [DVDrip, WEB-DLRip, HDrip] (DUB, MVO) [ 1.44 GB ] Молчание / The Silence [2019 BDRip-AVC] DUB [SDI Media] bober100 Скачать
    2 | 0
    Фильмы 2019-2020 [DVDrip, WEB-DLRip, HDrip] (DUB, MVO) [ 745 MB ] Молчание / The Silence [2019 BDRip-AVC] DUB [SDI Media] - OlLanDGroup Skandar2019 Скачать
    1 | 0
    Фильмы 2019-2020 [DVDrip, WEB-DLRip, HDrip] (DUB, MVO) [ 1.46 GB ] Молчание / The Silence [2019 BDRip] killermax2013 Скачать
    1 | 0
    T Фильмы (мультфильмы) cо спонсором показа (Новинки AVI/MKV) [ 4.56 GB ] Цена молчания / The Price for Silence [2018 WEB-DL 720p] MVO ["Синема УС"] bober100 Скачать
    1 | 0


    Последний раз редактировалось: Ворон (2017-05-10 15:57), всего редактировалось 1 раз

    28-11-2019 20:33  

    Отключить всю рекламу на сайте

    10-05-2017 13:56 Молчание Скачать торрент  

    Очень буду ждать 1.37 Гбpb.wtf



    10-05-2017 19:42 Молчание Скачать торрент  

    Гарфилд, что в пауке был бесполезен, что здесь.
    Пустой фильм.pb.wtf



      Дорогой пользователь! Огромная просьба, поблагодарите релизера, оцените раздачу и оставьте свои комментарий, если Вы скачали Молчание через торрент бесплатно! Внесите свою лепту в развитие PiratBit!
      Комментировать посты могут только пользователи прошедшие не сложную регистрацию
      Показать сообщения:    

      Молчание через торрент
      Скачать бесплатно Молчание
      Молчание скачать торрент
      Молчание смотреть онлайн
      Cкачать фильм Молчание бесплатно
      Молчание скачать торрент в хорошем качестве
      Молчание смотреть онлайн бесплатно в хорошем качестве


      Вы не можете начинать темы
      Вы не можете отвечать на сообщения
      Вы не можете редактировать свои сообщения
      Вы не можете удалять свои сообщения
      Вы не можете голосовать в опросах
      Вы не можете прикреплять файлы к сообщениям
      Вы можете скачивать файлы