2 сезон

iTunes

MVO

1

2 сезон

iTunes

iTunes

1 сезон

RePack

30

Ultimate

ВАЖНО

ИГРА 18+

pack

RePack

MK11
pack

Легкие деньги

RePack

jed

RePack

fifa19

RePack

RDR2

RePack

NEED FOR SPEED™ PAYBACK

4 сезон

9 сезон

Бесстыжие 9 сезон

Все сериалы

все сериалы на PB.wtf

RePack

FAR CRY 5

Anonymous, доброй ночи, мы не успеваем собрать деньги на оплату серверов за декабрь и январь, помогите нам пожалуйста в это трудное время. В качестве благодарности мы отключим Вам всю рекламу на сайте (укажите свой ник в строку Ваше имя)!

×
  
Magnet ссылка

Фантастическая любовь и где ее найти / This Beautiful Fantastic (Саймон Эбауд) [2017, Фэнтези, драма, мелодрама, WEB-DLRip] MVO - [Лицензия / iTunes] pb.wtf

Фантастическая любовь и где ее найти через торрент pb.wtf

Размер: 1.37 GB | Добавлен: 3 года 8 мес. назад | Торрент скачан:734 раза
Скачать  

10-05-2017 13:27 Фантастическая любовь и где ее найти Скачать торрент  


Фантастическая любовь и где ее найти / This Beautiful Fantastic


ИНФОРМАЦИЯ:
Год выпуска:2017
Страна: Великобритания, США, Constance Media
Жанр: Фэнтези, драма, мелодрама, комедия
Продолжительность: 01:31:33
Перевод: Профессиональный (многоголосый, закадровый) | iTunes
Режиссер: Саймон Эбауд

В Ролях:


Джессика Браун-Финдли (Bella Brown), Эндрю Скотт (Vernon), Джереми Ирвин (Billy), Том Уилкинсон (Alfie Stephenson), Анна Чэнселлор (Bramble), Шила Хэнкок (Mother Superior), Эйлин Дейвис (Milly), Шарлотта Эспри (Publisher), Пол Блэкуэлл (Library person), Тиа Шентон (Background Artist - Orphan), Лола Султан (School Girl), Миа Фаркасовска (Young Bella Brown)

ОПИСАНИЕ:
Как полет бабочки может вызвать где-то мощный ураган, так и странные поступки тихой и одинокой девушки, живущей в мире своих фантазий, могут навсегда изменить жизнь совершенно разных людей, подарив им счастье и раскрасив окружающий мир яркими, головокружительными красками.


ТЕХ.ДАННЫЕ:
Качество: WEB-DLRip
Формат: AVI
Видео: XviD, 720x304 (2.35:1), 1748 kbps, 24 fps, 0,333 bpp
Аудио: AC3 / 5.1 / 48 kHz / 384 kbps /


General
Complete name : W:\Торенты\Fantastic.Love.2016.P.WEB-DLRip.avi
Format : AVI
Format/Info : Audio Video Interleave
File size : 1.37 GiB
Duration : 1 h 31 min
Overall bit rate : 2 142 kb/s
Writing application : VirtualDubMod 1.5.10.3 | www.virtualdub-fr.org || (build 2550/release)
Writing library : VirtualDubMod build 2550/release

Video
ID : 0
Format : MPEG-4 Visual
Format profile : Advanced Simple@L5
Format settings, BVOP : 1
Format settings, QPel : No
Format settings, GMC : No warppoints
Format settings, Matrix : Custom
Codec ID : XVID
Codec ID/Hint : XviD
Duration : 1 h 31 min
Bit rate : 1 749 kb/s
Width : 720 pixels
Height : 304 pixels
Display aspect ratio : 2.35:1
Frame rate : 24.000 FPS
Color space : YUV
Chroma subsampling : 4:2:0
Bit depth : 8 bits
Scan type : Progressive
Compression mode : Lossy
Bits/(Pixel*Frame) : 0.333
Stream size : 1.12 GiB (82%)
Writing library : XviD 1.2.1 (UTC 2008-12-04)

Audio
ID : 1
Format : AC-3
Format/Info : Audio Coding 3
Mode extension : CM (complete main)
Format settings, Endianness : Big
Codec ID : 2000
Duration : 1 h 31 min
Bit rate mode : Constant
Bit rate : 384 kb/s
Channel(s) : 6 channels
Channel positions : Front: L C R, Side: L R, LFE
Sampling rate : 48.0 kHz
Frame rate : 31.250 FPS (1536 spf)
Compression mode : Lossy
Stream size : 251 MiB (18%)
Alignment : Split accross interleaves
Interleave, duration : 42 ms (1.00 video frame)
Interleave, preload duration : 500 ms
Скриншоты:


© Оформление by .::Ворон::.
pb.wtf



Скачать Фантастическая любовь и где ее найти через торрент http://pic.kartinco.top/images/6/ordi9.jpg Скачать фильм Фантастическая любовь и где ее найти через торрент бесплантно в хорошем качестве Е:Как полет бабочки может вызвать где-то мощный ураган, так и странные поступки тихой и одинокой девушки, живущей в мире своих фантазий, ... 9.4 10 25
Info! Золотая раздача, скачанное не засчитывается.
Торрент: Зарегистрирован [2017-05-10 13:27] · скачан: 734 раз
Статус: √ проверено
Размер: 1.37 GB
Как cкачать? Как скачать Фантастическая любовь и где ее найти через торрент | UTorrent



Последний раз редактировалось: Ворон (2017-05-29 16:52), всего редактировалось 1 раз

28-11-2019 20:33  

Отключить всю рекламу на сайте

29-05-2017 16:48 Фантастическая любовь и где ее найти Скачать торрент  

Мориарти кстати тут проф многоголоска а не бубляжpb.wtf



29-05-2017 18:13 Фантастическая любовь и где ее найти Скачать торрент  

Жанр: Фэнтези, драма, мелодрама, комедия, фильм по большей части мелодрама с элементами комедии.В целом понравилсяpb.wtf



    Дорогой пользователь! Огромная просьба, поблагодарите релизера, оцените раздачу и оставьте свои комментарий, если Вы скачали Фантастическая любовь и где ее найти через торрент бесплатно! Внесите свою лепту в развитие PiratBit!
    Комментировать посты могут только пользователи прошедшие не сложную регистрацию
    Показать сообщения:    

    Фантастическая любовь и где ее найти через торрент
    Скачать бесплатно Фантастическая любовь и где ее найти
    Фантастическая любовь и где ее найти скачать торрент
    Фантастическая любовь и где ее найти смотреть онлайн
    Cкачать фильм Фантастическая любовь и где ее найти бесплатно
    Фантастическая любовь и где ее найти скачать торрент в хорошем качестве
    Фантастическая любовь и где ее найти смотреть онлайн бесплатно в хорошем качестве


    Вы не можете начинать темы
    Вы не можете отвечать на сообщения
    Вы не можете редактировать свои сообщения
    Вы не можете удалять свои сообщения
    Вы не можете голосовать в опросах
    Вы не можете прикреплять файлы к сообщениям
    Вы можете скачивать файлы