Ссылка на приватное зеркало нашего сайта всего за 1$. Внимание количество ограничено!!!

2 сезон

iTunes

1 сезон

1

iTunes

iTunes

iTunes

1 сезон

RePack

30

ИГРА 18+

pack

ВАЖНО

!!Акция!!

Alien_RageХит недели

RePack

MK11
pack

Забери бонус

RePack

jed

!!Акция!!

Alien_Rage

RePack

fifa19

RePack

Assassins Creed: Odyssey

RePack

NEED FOR SPEED™ PAYBACK

4 сезон

9 сезон

Бесстыжие 9 сезон

Все сериалы

все сериалы на PB.wtf

RePack

FAR CRY 5
  

Тэсс / Tess (Роман Полански) [1979, драма, мелодрама, BDRip 1080p от еnvy / NNNB] DVO, MVO pb.wtf

Тэсс через торрент pb.wtf

Раздают: 2 [ 0 KB/s ]
Размер: 13.55 GB | Добавлен: 3 года 5 мес. назад | Торрент скачан:22 раза
Скачать  

10-05-2017 15:20 Тэсс Скачать торрент  

Информация о фильме

Русское название: Тэсс
Оригинальное название: Tess
Год выхода: 1979
Жанр: драма, мелодрама
Режиссер: Роман Полански
Выпущено: Франция, Великобритания
Продолжительность: 02:51:39
Перевод: Профессиональный (многоголосый закадровый), Профессиональный (двухголосый закадровый)
В ролях: Настасья Кински, Питер Ферт, Ли Лоусон, Розмари Мартин, Кэролин Пиклз, Ричард Пирсон, Дэвид Маркам, Паскаль де Буассон, Сюзанна Хэмилтон, Лесли Данлоп, Сильвия Кольридж, Фред Брайант, Дикен Эшворт
Описание:

Юная красавица-крестьянка Тэсс неожиданно узнаёт, что в её жилах течёт благородная кровь норманнских рыцарей. По воле родителей девушка уезжает жить к новообретённым состоятельным родственникам. Там она сталкивается с обольстительным кузеном Алеком, который не прочь воспользоваться невинностью Тэсс.


Файл

Качество: BDRip 1080p (исходник Blu-Ray Remux 1080p [Criterion Collection])
Формат: MKV
Видео: 1920x804, 9888 Кбит/сек, 23,976 кадр/сек, AVC, x264, High@L4.1, 2.35:1, 0.267 Бит/[Пиксели*Кадры]
Аудио 1: AC-3, 384 Кбит/сек, 6 канала(ов), 48,0 КГц - Многоголосый закадровый, НТВ / Русский
Аудио 2: AC-3, 192 Кбит/сек, 2 канала(ов), 48,0 КГц - Двухголосый закадровый, Екатеринбург Арт / Русский
Аудио 3: AC-3, 192 Кбит/сек, 2 канала(ов), 48,0 КГц - Двухголосый закадровый, ОРТ / Русский
Аудио 4: AC-3, 640 Кбит/сек, 6 канала(ов), 48,0 КГц - Оригинал / Английский
Субтитры: Русские | Полные, Английские | Полные
Форсированные субтитры: Нет
Чаптеры (Главы): Есть






Автор Рипа: Группа:


Format : Matroska
Format version : Version 2
File size : 13.5 GiB
Duration : 2 h 51 min
Overall bit rate : 11.3 Mb/s
Movie name : Tess.(1979).BDRip.1080p.[envy]
Encoded date : UTC 2017-05-10 09:55:02
Writing application : mkvmerge v5.8.0 ('No Sleep / Pillow') built on Sep 2 2012 15:37:04
Writing library : libebml v1.2.3 + libmatroska v1.3.0

Video
ID : 1
Format : AVC
Format/Info : Advanced Video Codec
Format profile : High@L4.1
Format settings, CABAC : Yes
Format settings, ReFrames : 5 frames
Codec ID : V_MPEG4/ISO/AVC
Duration : 2 h 51 min
Bit rate : 9 888 kb/s
Width : 1 920 pixels
Height : 804 pixels
Display aspect ratio : 2.40:1
Frame rate mode : Constant
Frame rate : 23.976 (24000/1001) FPS
Color space : YUV
Chroma subsampling : 4:2:0
Bit depth : 8 bits
Scan type : Progressive
Bits/(Pixel*Frame) : 0.267
Stream size : 11.6 GiB (86%)
Title : Tess.(1979).BDRip.1080p.[envy]
Writing library : x264 core 148 r2744 b97ae06
Encoding settings : cabac=1 / ref=5 / deblock=1:-3:-3 / analyse=0x3:0x133 / me=umh / subme=11 / psy=1 / psy_rd=1.00:0.10 / mixed_ref=1 / me_range=32 / chroma_me=1 / trellis=2 / 8x8dct=1 / cqm=0 / deadzone=21,11 / fast_pskip=0 / chroma_qp_offset=-3 / threads=12 / lookahead_threads=1 / sliced_threads=0 / nr=0 / decimate=1 / interlaced=0 / bluray_compat=0 / constrained_intra=0 / bframes=5 / b_pyramid=2 / b_adapt=2 / b_bias=0 / direct=3 / weightb=1 / open_gop=0 / weightp=2 / keyint=240 / keyint_min=23 / scenecut=40 / intra_refresh=0 / rc=2pass / mbtree=0 / bitrate=9888 / ratetol=2.0 / qcomp=0.60 / qpmin=0 / qpmax=69 / qpstep=4 / cplxblur=20.0 / qblur=0.5 / ip_ratio=1.40 / pb_ratio=1.30 / aq=1:0.95
Language : English
Default : Yes
Forced : No

Audio #1
ID : 2
Format : AC-3
Format/Info : Audio Coding 3
Format settings, Endianness : Big
Codec ID : A_AC3
Duration : 2 h 51 min
Bit rate mode : Constant
Bit rate : 384 kb/s
Channel(s) : 6 channels
Channel positions : Front: L C R, Side: L R, LFE
Sampling rate : 48.0 kHz
Frame rate : 31.250 FPS (1536 spf)
Bit depth : 16 bits
Compression mode : Lossy
Stream size : 471 MiB (3%)
Title : MVO R5
Language : Russian
Service kind : Complete Main
Default : Yes
Forced : No

Audio #2
ID : 3
Format : AC-3
Format/Info : Audio Coding 3
Format settings, Endianness : Big
Codec ID : A_AC3
Duration : 2 h 51 min
Bit rate mode : Constant
Bit rate : 192 kb/s
Channel(s) : 2 channels
Channel positions : Front: L R
Sampling rate : 48.0 kHz
Frame rate : 31.250 FPS (1536 spf)
Bit depth : 16 bits
Compression mode : Lossy
Stream size : 236 MiB (2%)
Title : DVO Екатеринбург Арт
Language : Russian
Service kind : Complete Main
Default : No
Forced : No

Audio #3
ID : 4
Format : AC-3
Format/Info : Audio Coding 3
Format settings, Endianness : Big
Codec ID : A_AC3
Duration : 2 h 51 min
Bit rate mode : Constant
Bit rate : 192 kb/s
Channel(s) : 2 channels
Channel positions : Front: L R
Sampling rate : 48.0 kHz
Frame rate : 31.250 FPS (1536 spf)
Bit depth : 16 bits
Compression mode : Lossy
Stream size : 236 MiB (2%)
Title : DVO ОРТ
Language : Russian
Service kind : Complete Main
Default : No
Forced : No

Audio #4
ID : 5
Format : AC-3
Format/Info : Audio Coding 3
Format settings, Endianness : Big
Codec ID : A_AC3
Duration : 2 h 51 min
Bit rate mode : Constant
Bit rate : 640 kb/s
Channel(s) : 6 channels
Channel positions : Front: L C R, Side: L R, LFE
Sampling rate : 48.0 kHz
Frame rate : 31.250 FPS (1536 spf)
Bit depth : 16 bits
Compression mode : Lossy
Stream size : 786 MiB (6%)
Title : Eng
Language : English
Service kind : Complete Main
Default : No
Forced : No

Text #1
ID : 6
Format : UTF-8
Codec ID : S_TEXT/UTF8
Codec ID/Info : UTF-8 Plain Text
Title : Rus full
Language : Russian
Default : No
Forced : No

Text #2
ID : 7
Format : UTF-8
Codec ID : S_TEXT/UTF8
Codec ID/Info : UTF-8 Plain Text
Title : Eng full
Language : English
Default : No
Forced : No

Menu
00:00:00.000 : :1
00:07:34.287 : :2
00:11:32.024 : :3
00:15:42.399 : :4
00:23:49.511 : :5
00:32:34.953 : :6
00:42:06.857 : :7
00:45:18.549 : :8
00:54:03.448 : :9
01:00:41.721 : :10
01:04:15.268 : :11
01:11:56.145 : :12
01:18:44.886 : :13
01:27:37.043 : :14
01:44:36.144 : :15
01:51:15.710 : :16
02:00:24.300 : :17
02:05:13.923 : :18
02:12:23.644 : :19
02:23:49.454 : :20
02:30:05.204 : :21
02:37:30.149 : :22
02:44:24.980 : :23
02:50:24.422 : :24

pb.wtf



Скачать Тэсс через торрент http://img11.lostpic.net/2017/05/10/146e642780fb88d1ece9ba3de8e1794f.png Скачать фильм Тэсс через торрент бесплантно в хорошем качестве Описание:Юная красавица-крестьянка Тэсс неожиданно узнаёт, что в её жилах течёт благородная кровь норманнских рыцарей. По воле родителей ... 10 10 2
Info! Золотая раздача, скачанное не засчитывается.
Торрент: Зарегистрирован [2017-05-10 15:20] · скачан: 22 раз
Статус: √ проверено
Размер: 13.55 GB
Как cкачать? Как скачать Тэсс через торрент | qTorrent



Последний раз редактировалось: еnvy (2017-05-10 15:32), всего редактировалось 2 раз(а)

28-11-2019 20:33  

Отключить всю рекламу на сайте

10-05-2017 15:27 Тэсс Скачать торрент  

x264 [info]: frame I:1351 Avg QP:14.59 size:191224
x264 [info]: frame P:52723 Avg QP:16.54 size: 86799
x264 [info]: frame B:192867 Avg QP:18.37 size: 40940pb.wtf



    Дорогой пользователь! Огромная просьба, поблагодарите релизера, оцените раздачу и оставьте свои комментарий, если Вы скачали Тэсс через торрент бесплатно! Внесите свою лепту в развитие PiratBit!
    Комментировать посты могут только пользователи прошедшие не сложную регистрацию
    Показать сообщения:    

    Тэсс через торрент
    Скачать бесплатно Тэсс
    Тэсс скачать торрент
    Тэсс смотреть онлайн
    Cкачать фильм Тэсс бесплатно
    Тэсс скачать торрент в хорошем качестве
    Тэсс смотреть онлайн бесплатно в хорошем качестве


    Вы не можете начинать темы
    Вы не можете отвечать на сообщения
    Вы не можете редактировать свои сообщения
    Вы не можете удалять свои сообщения
    Вы не можете голосовать в опросах
    Вы не можете прикреплять файлы к сообщениям
    Вы можете скачивать файлы