Ссылка на приватное зеркало нашего сайта всего за 1$. Внимание количество ограничено!!!

2 сезон

iTunes

1 сезон

1

2 сезон

2 сезон

iTunes

1 сезон

RePack

30

Ultimate

ВАЖНО

ИГРА 18+

pack

RePack

MK11
pack

Забери бонус

RePack

jed

!!Акция!!

Alien_Rage

RePack

fifa19

RePack

Assassins Creed: Odyssey

RePack

NEED FOR SPEED™ PAYBACK

4 сезон

9 сезон

Бесстыжие 9 сезон

Все сериалы

все сериалы на PB.wtf

RePack

FAR CRY 5
  

Видели ночь / All Nighter (Гэвин Вьесен) [2017, Комедия, BD Remux 1080p] DUB [iTunes] pb.wtf

Видели ночь через торрент pb.wtf

Размер: 21.08 GB | Добавлен: 3 года 6 мес. назад | Торрент скачан:11 раз
Скачать  

10-05-2017 21:21 Видели ночь Скачать торрент  

Видели ночь / All Nighter
Год выпуска: 2017
Страна: США
Жанр: Комедия
Продолжительность: 01:25:55
Перевод: Дубляж - [iTunes]
Субтитры:Английские

Режиссер: Гэвин Вьесен

rating

В ролях:

Анали Типтон, Дж.К. Симмонс, Эмиль Хирш, Кристен Шаал, Шеннон Мари Вудворд, Таран Киллэм и др.

Описание:

С тех пор как Джинни решила порвать с ним, Мартин не может прийти в себя. Его квартира постепенно превращается в помойку, как и вся его незамысловатая жизнь, которая так и катилась бы под откос, если бы однажды на его пороге не появился мистер Галло, злобный и надменный папаша Джинни. Какое-то время назад он потерял связь со своей дочкой и Мартин — его единственная зацепка. Несмотря на все его протесты, мистер Галло, не привыкший получать отказы, втягивает Мартина в безбашенное ночное приключение на улицах Лос-Анжелеса

Качество: BD Remux 1080p
Формат: MKV
Видео кодек: H.264
Аудио кодек: AC3/DTS-HD MA

Видео: 1920x1080, 32.0 Mbit/s, 23.976 fps, 0,644 bpp
Аудио#1: 48 kHz, AC3, 5.1, 384 Kbps | Дублированный | iTunes | RUS |
Аудио#2: 48 kHz, DTS-HD MA, 5.1, 3840 Kbps | Оригинал | ENG |
скриншот   скриншот   скриншот   скриншот  

General
Unique ID : 176338565545396393187009170426249315531 (0x84A992871073358DA80073E47CB384CB)
Complete name : D:NNMClubAll.Nighter.2017.BDRemux.NNMClub.mkv
Format : Matroska
Format version : Version 4 / Version 2
File size : 21.1 GiB
Duration : 1 h 25 min
Overall bit rate mode : Variable
Overall bit rate : 35.1 Mb/s
Movie name : Видели ночь / All Nighter (2017) BDRemux | NNMClub
Encoded date : UTC 2017-05-09 16:46:16
Writing application : mkvmerge v11.0.0 ('Alive') 64bit
Writing library : libebml v1.3.4 + libmatroska v1.4.5
Cover : Yes
Attachments : Cover.jpg

Video
ID : 1
Format : AVC
Format/Info : Advanced Video Codec
Format profile : High@L4.1
Format settings, CABAC : Yes
Format settings, ReFrames : 3 frames
Codec ID : V_MPEG4/ISO/AVC
Duration : 1 h 25 min
Bit rate mode : Variable
Bit rate : 32.0 Mb/s
Width : 1 920 pixels
Height : 1 080 pixels
Display aspect ratio : 16:9
Frame rate mode : Constant
Frame rate : 23.976 (24000/1001) FPS
Color space : YUV
Chroma subsampling : 4:2:0
Bit depth : 8 bits
Scan type : Progressive
Bits/(Pixel*Frame) : 0.644
Stream size : 18.6 GiB (88%)
Title : All.Nighter.2017
Writing library : x264 core 148 r2597 e86f3a1
Encoding settings : cabac=1 / ref=4 / deblock=1:-1:-1 / analyse=0x3:0x133 / me=umh / subme=10 / psy=1 / psy_rd=1.00:0.15 / mixed_ref=1 / me_range=24 / chroma_me=1 / trellis=2 / 8x8dct=1 / cqm=0 / deadzone=21,11 / fast_pskip=1 / chroma_qp_offset=-3 / threads=34 / lookahead_threads=2 / sliced_threads=0 / slices=4 / nr=0 / decimate=1 / interlaced=0 / bluray_compat=1 / constrained_intra=0 / bframes=3 / b_pyramid=1 / b_adapt=2 / b_bias=0 / direct=3 / weightb=1 / open_gop=1 / weightp=1 / keyint=24 / keyint_min=1 / scenecut=40 / intra_refresh=0 / rc_lookahead=24 / rc=2pass / mbtree=1 / bitrate=32000 / ratetol=1.0 / qcomp=0.60 / qpmin=0 / qpmax=69 / qpstep=4 / cplxblur=20.0 / qblur=0.5 / vbv_maxrate=32000 / vbv_bufsize=30000 / nal_hrd=vbr / filler=0 / ip_ratio=1.40 / aq=1:1.00
Language : English
Default : Yes
Forced : No
Color range : Limited
Color primaries : BT.709
Transfer characteristics : BT.709
Matrix coefficients : BT.709

Audio #1
ID : 2
Format : AC-3
Format/Info : Audio Coding 3
Format settings, Endianness : Big
Codec ID : A_AC3
Duration : 1 h 25 min
Bit rate mode : Constant
Bit rate : 384 kb/s
Channel(s) : 6 channels
Channel positions : Front: L C R, Side: L R, LFE
Sampling rate : 48.0 kHz
Frame rate : 31.250 FPS (1536 spf)
Bit depth : 16 bits
Compression mode : Lossy
Stream size : 236 MiB (1%)
Title : iTunes
Language : Russian
Service kind : Complete Main
Default : Yes
Forced : No

Audio #2
ID : 3
Format : DTS
Format/Info : Digital Theater Systems
Format profile : MA / Core
Mode : 16
Format settings, Endianness : Big
Codec ID : A_DTS
Duration : 1 h 25 min
Bit rate mode : Variable / Constant
Bit rate : 3 840 kb/s / 1 509 kb/s
Channel(s) : 6 channels
Channel positions : Front: L C R, Side: L R, LFE
Sampling rate : 48.0 kHz
Frame rate : 93.750 FPS (512 spf)
Bit depth : 24 bits
Compression mode : Lossless / Lossy
Stream size : 2.27 GiB (11%)
Title : original
Language : English
Default : No
Forced : No

Text
ID : 4
Format : UTF-8
Codec ID : S_TEXT/UTF8
Codec ID/Info : UTF-8 Plain Text
Duration : 1 h 20 min
Bit rate : 76 b/s
Count of elements : 1663
Stream size : 45.0 KiB (0%)
Title : full
Language : English
Default : No
Forced : No

Menu
00:00:00.000 : en:Chapter 01
00:12:17.194 : en:Chapter 02
00:24:11.199 : en:Chapter 03
00:34:18.389 : en:Chapter 04
00:48:00.919 : en:Chapter 05
00:59:37.574 : en:Chapter 06
01:10:59.463 : en:Chapter 07
01:20:11.848 : en:Chapter 08
01:25:52.605 : en:Chapter 09

pb.wtf



Скачать Видели ночь через торрент http://pic1.kartinco.top/images/11/kcplo.jpg Скачать фильм Видели ночь через торрент бесплантно в хорошем качестве Описание: С тех пор как Джинни решила порвать с ним, Мартин не может прийти в себя. Его квартира постепенно превращается в помойку, как и ... 10 10 4
Торрент: Зарегистрирован [2017-05-10 21:21] · скачан: 11 раз
Статус: √ проверено
Размер: 21.08 GB
Как cкачать? Как скачать Видели ночь через торрент | qTorrent

% Раздел Тема Автор DL S | L
Фильмы 2017 [DVDrip, WEB-DLRip, HDrip] (DUB, MVO) [ 1.46 GB ] Видели ночь / All Nighter [2017 BDRip] - [] Twi7ter Скачать
1 | 0
Фильмы 2017 [DVDrip, WEB-DLRip, HDrip] (DUB, MVO) [ 1.45 GB ] Видели ночь / All Nighter [2017 BDRip-AVC] - [] - ExKinoRay Enigma2010 Скачать
1 | 0
Фильмы [HD 720p, 1080p] (Хороший звук DUB, MVO) [ 4.25 GB ] Видели ночь / All Nighter [2017 BDRip 720p] bober100 Скачать
1 | 0
Фильмы [HD 720p, 1080p] (Хороший звук DUB, MVO) [ 8.75 GB ] Видели ночь / All Nighter [2017 BDRip 1080p] bober100 Скачать
1 | 0
Фильмы 2017 [DVDrip, WEB-DLRip, HDrip] (DUB, MVO) [ 1.42 GB ] Видели ночь / All Nighter [2017 BDRip] - Twi7ter Скачать
1 | 0
Фильмы 2017 [DVDrip, WEB-DLRip, HDrip] (DUB, MVO) [ 1.41 GB ] Видели ночь / All Nighter [2017 BDRip-AVC] MVO - ExKinoRay Enigma2010 Скачать
2 | 0
Фильмы 2017 [DVDrip, WEB-DLRip, HDrip] (DUB, MVO) [ 1.42 GB ] Видели ночь / All Nighter [2017 BDRip] MVO [AlexFilm] Twi7ter Скачать
1 | 0

28-11-2019 20:33  

Отключить всю рекламу на сайте

    Дорогой пользователь! Огромная просьба, поблагодарите релизера, оцените раздачу и оставьте свои комментарий, если Вы скачали Видели ночь через торрент бесплатно! Внесите свою лепту в развитие PiratBit!
    Комментировать посты могут только пользователи прошедшие не сложную регистрацию
    Показать сообщения:    

    Видели ночь через торрент
    Скачать бесплатно Видели ночь
    Видели ночь скачать торрент
    Видели ночь смотреть онлайн
    Cкачать фильм Видели ночь бесплатно
    Видели ночь скачать торрент в хорошем качестве
    Видели ночь смотреть онлайн бесплатно в хорошем качестве


    Вы не можете начинать темы
    Вы не можете отвечать на сообщения
    Вы не можете редактировать свои сообщения
    Вы не можете удалять свои сообщения
    Вы не можете голосовать в опросах
    Вы не можете прикреплять файлы к сообщениям
    Вы можете скачивать файлы