1 сезон

3 сезон

iTunes

1

iTunes

MVO

iTunes

13

1 сезон

RePack

30

Deluxe

pack

Лицензия

ВАЖНО

ИГРА 18+

pack

RePack

MK11

RePack

jed

RePack

fifa19

RePack

RDR2

RePack

NEED FOR SPEED™ PAYBACK

4 сезон

9 сезон

Бесстыжие 9 сезон

Все сериалы

все сериалы на PB.wtf

RePack

FAR CRY 5

Anonymous, добрый день, мы катастрофически не успеваем собрать деньги на оплату серверов, помогите нам пожалуйста 5,10,15р., для нас важна любая помощь . В качестве благодарности мы отключим Вам всю рекламу на сайте (укажите свой ник в строку Ваше имя)!

×
  
Magnet ссылка

Сплит / Split (М. Найт Шьямалан) [2016, ужасы, триллер, BDRip-AVC] Дубляж - [Лицензия / iTunes] от R.G.Resident pb.wtf

Сплит через торрент pb.wtf

Размер: 1.98 GB | Добавлен: 4 года 2 мес. назад | Торрент скачан:253 раза
Скачать  

11-05-2017 02:58 Сплит Скачать торрент  

Сплит / Split
««Внутри Кевина живут 23 личности. Вскоре еще одна явит себя миру»»

Год выпуска: 2016
Страна: США
Жанр: ужасы, триллер
Продолжительность: 01:57:07
Перевод: Дубляж - [Лицензия / iTunes]
Субтитры: английские
Режиссер: М. Найт Шьямалан
В ролях:

Джеймс МакЭвой (Dennis / Patricia / Hedwig / The Beast / Kevin Wendell Crumb / Barry / Orwell / Jade), Аня Тейлор-Джой (Casey Cooke), Бетти Бакли (Dr. Karen Fletcher), Хейли Лу Ричардсон (Claire Benoit), Джессика Сула (Marcia), Иззи Коффи (Five-Year-Old Casey), Брэд Уильям Хенке (Uncle John), Себастьян Арселус (Casey's Father), Нил Хафф (Mr. Benoit), Уки Вашингтон (News Anchor), Энн Вуд (Game Show Enthusiast), Роберт Майкл Келли (Joe)
Описание:
Cредь бела дня с многолюдной парковки незнакомец похищает трёх школьниц. Они приходят в себя в закрытом помещении, а в душе владельца таятся 23 лика страха. Сменяя друг друга, личности ведут обычную для них жизнь - работают и ходят к психотерапевту, периодически напоминая пленницам, что они дожидаются 24-ю личность, которая скоро явит себя миру.
Мировая премьера: 26 сентября 2016

MPAA: PG-13 - Детям до 13 лет просмотр не желателен
Качество: BDRip-AVC Rip by
Формат: MKV
Видео: AVC, 1024x428 (2.40:1), 1587 kbps, 23,976 fps, 0,151 bpp
Аудио №1: русский / AC3 / 5.1 / 48 kHz / 384 kbps /
Аудио №2: английский / AC3 / 5.1 / 48 kHz / 448 kbps /
General
Unique ID : 191654619145643052260602035198443762194 (0x902F564595963ED98B2E97B98695B212)
Complete name : D:\download\Split.2016.BDRip-AVC by schultz R.G.Resident.mkv
Format : Matroska
Format version : Version 4 / Version 2
File size : 1.98 GiB
Duration : 1 h 57 min
Overall bit rate : 2 421 kb/s
Encoded date : UTC 2017-05-11 02:12:54
Writing application : mkvmerge v8.9.0 ('Father Daughter') 64bit
Writing library : libebml v1.3.3 + libmatroska v1.4.4

Video
ID : 1
Format : AVC
Format/Info : Advanced Video Codec
Format profile : High@L4.1
Format settings, CABAC : Yes
Format settings, ReFrames : 12 frames
Codec ID : V_MPEG4/ISO/AVC
Duration : 1 h 57 min
Bit rate : 1 587 kb/s
Width : 1 024 pixels
Height : 428 pixels
Display aspect ratio : 2.40:1
Frame rate mode : Constant
Frame rate : 23.976 (23976/1000) FPS
Color space : YUV
Chroma subsampling : 4:2:0
Bit depth : 8 bits
Scan type : Progressive
Bits/(Pixel*Frame) : 0.151
Stream size : 1.30 GiB (66%)
Writing library : x264 core 146 r2538 121396c
Encoding settings : cabac=1 / ref=12 / deblock=1:-3:-3 / analyse=0x3:0x113 / me=umh / subme=11 / psy=1 / psy_rd=1.00:0.00 / mixed_ref=1 / me_range=48 / chroma_me=1 / trellis=2 / 8x8dct=1 / cqm=0 / deadzone=21,11 / fast_pskip=0 / chroma_qp_offset=-2 / threads=12 / lookahead_threads=3 / sliced_threads=0 / nr=0 / decimate=0 / interlaced=0 / bluray_compat=0 / constrained_intra=0 / bframes=11 / b_pyramid=2 / b_adapt=2 / b_bias=0 / direct=3 / weightb=1 / open_gop=0 / weightp=2 / keyint=240 / keyint_min=23 / scenecut=40 / intra_refresh=0 / rc_lookahead=40 / rc=2pass / mbtree=1 / bitrate=1587 / ratetol=1.0 / qcomp=0.60 / qpmin=0 / qpmax=69 / qpstep=4 / cplxblur=20.0 / qblur=0.5 / vbv_maxrate=50000 / vbv_bufsize=62500 / nal_hrd=none / filler=0 / ip_ratio=1.40 / aq=1:1.00
Language : English
Default : Yes
Forced : No

Audio #1
ID : 2
Format : AC-3
Format/Info : Audio Coding 3
Mode extension : CM (complete main)
Format settings, Endianness : Big
Codec ID : A_AC3
Duration : 1 h 57 min
Bit rate mode : Constant
Bit rate : 384 kb/s
Channel(s) : 6 channels
Channel positions : Front: L C R, Side: L R, LFE
Sampling rate : 48.0 kHz
Frame rate : 31.250 FPS (1536 spf)
Compression mode : Lossy
Stream size : 322 MiB (16%)
Language : Russian
Default : Yes
Forced : No

Audio #2
ID : 3
Format : AC-3
Format/Info : Audio Coding 3
Mode extension : CM (complete main)
Format settings, Endianness : Big
Codec ID : A_AC3
Duration : 1 h 57 min
Bit rate mode : Constant
Bit rate : 448 kb/s
Channel(s) : 6 channels
Channel positions : Front: L C R, Side: L R, LFE
Sampling rate : 48.0 kHz
Frame rate : 31.250 FPS (1536 spf)
Compression mode : Lossy
Stream size : 375 MiB (19%)
Language : English
Default : No
Forced : No

Text
ID : 4
Format : UTF-8
Codec ID : S_TEXT/UTF8
Codec ID/Info : UTF-8 Plain Text
Duration : 1 h 53 min
Bit rate : 43 b/s
Count of elements : 1274
Stream size : 36.0 KiB (0%)
Language : English
Default : No
Forced : No

Menu
00:00:00.000 : en:00:00:00.000
00:06:08.451 : en:00:06:08.451
00:14:19.025 : en:00:14:19.025
00:20:49.373 : en:00:20:49.373
00:24:14.536 : en:00:24:14.536
00:28:37.049 : en:00:28:37.049
00:35:47.979 : en:00:35:47.979
00:42:35.386 : en:00:42:35.386
00:49:06.068 : en:00:49:06.068
00:54:09.413 : en:00:54:09.413
01:00:24.496 : en:01:00:24.496
01:06:22.562 : en:01:06:22.562
01:12:31.222 : en:01:12:31.222
01:19:35.771 : en:01:19:35.771
01:25:25.829 : en:01:25:25.829
01:29:16.560 : en:01:29:16.560
01:34:08.226 : en:01:34:08.226
01:40:45.998 : en:01:40:45.998
01:47:40.287 : en:01:47:40.287
01:52:26.740 : en:01:52:26.740

pb.wtf



Скачать Сплит через торрент http://i77.fastpic.ru/big/2016/0417/a7/808a646271c761f7c7d87df3d366b3a7.png Скачать фильм Сплит через торрент бесплантно в хорошем качестве Описание: Cредь бела дня с многолюдной парковки незнакомец похищает трёх школьниц. Они приходят в себя в закрытом помещении, а в душе ... 10 10 9
Info! Золотая раздача, скачанное не засчитывается.
Торрент: Зарегистрирован [2017-05-11 02:58] · скачан: 253 раз
Статус: √ проверено
Размер: 1.98 GB
Как cкачать? Как скачать Сплит через торрент | UTorrent

% Раздел Тема Автор DL S | L
R.G. Resident & PiratVoice - Фильмы, Видео [ 4.83 GB ] Сплит / Split [2016 BDRip 720p] - schultz Скачать
1 | 0

28-11-2019 20:33  

Отключить всю рекламу на сайте

11-05-2017 04:05 Сплит Скачать торрент  

Отлично!!!pb.wtf



11-05-2017 08:43 Сплит Скачать торрент  

Не смог досмотреть!!!pb.wtf



    Дорогой пользователь! Огромная просьба, поблагодарите релизера, оцените раздачу и оставьте свои комментарий, если Вы скачали Сплит через торрент бесплатно! Внесите свою лепту в развитие PiratBit!
    Комментировать посты могут только пользователи прошедшие не сложную регистрацию
    Показать сообщения:    

    Сплит через торрент
    Скачать бесплатно Сплит
    Сплит скачать торрент
    Сплит смотреть онлайн
    Cкачать фильм Сплит бесплатно
    Сплит скачать торрент в хорошем качестве
    Сплит смотреть онлайн бесплатно в хорошем качестве


    Вы не можете начинать темы
    Вы не можете отвечать на сообщения
    Вы не можете редактировать свои сообщения
    Вы не можете удалять свои сообщения
    Вы не можете голосовать в опросах
    Вы не можете прикреплять файлы к сообщениям
    Вы можете скачивать файлы