новый адрес пиратбит piratbit
Мега распродажа FORZA HORIZON 4 ULTIMATE+ВСЕ DLC+ОНЛАЙН всего за 499р. 349 руб. (супер цена). Внимание количество ограничено!!!

iTunes

1+1

iTunes

мы

iTunes

1

iTunes

Чернобыль

iTunes

Ральф против интернета

Лицензия

ПШазам

Лицензия

Игра престолов

Лицензия

30
pack

ВАЖНО

!!Акция!!

Alien_RageХит недели

RePack

Resident Evil 21

ИГРА 18+

pack

RePack

Metro:Exodus

!!Акция!!

Alien_Rage

RePack

fifa19

RePack

Assassins Creed: Odyssey

RePack

NEED FOR SPEED™ PAYBACK

3 сезон

9 сезон

Бесстыжие 9 сезон

Все сериалы

все сериалы на PB.wtf

RePack

FAR CRY 5
Ребята, катастрофически не хватает 1900р. для оплаты серверов за Октябрь (всвязи с блокировками трафик упал в 3 раза), 1-2р., выручайте.
  

Пожиратель детей / Child Eater (Ерлингур Тороддсен) [2016 г., Ужасы, DVDRip, Любительский (одноголосый)(Виктор Рутилов)] pb.wtf

Пожиратель детей через торрент pb.wtf

Размер: 1.16 GB | Добавлен: 2 года 6 мес. назад | Торрент скачан:349 раз
Скачать  

11-05-2017 10:18 Пожиратель детей Скачать торрент  

Пожиратель детей / Child Eater
Год выпуска: 2016
Страна: США, Исландия
Жанр: Ужасы
Продолжительность: 01:22:43
Перевод: Любительский (одноголосый)(Виктор Рутилов)
Субтитры: нет

Режиссер: Ерлингур Тороддсен



В ролях: Кайт Блисс, Колин П. Критчли, Джейсон Мартин, Джеймс Уилкокс, Мелинда Чилтон, Кара Дюрретт

Описание: Элен подрабатывает бебиситтером. В одну из ночей она понимает, что некоторые детские страхи вовсе не плод богатого воображения.

Доп. информация: Рекламы нет.
Перевод - Виктор Рутилов (2017)
Сведение аудио - Diablo

Качество: DVDRip
Формат: AVI
Видео кодек: XviD
Аудио кодек: AC3
Видео: Xvid, 720x336, ~1301 Kbps,23.976 fps
Аудио#1: AC3, 6 ch, 384 Kbps,48.0 KHz (русский)
Аудио#2: AC3, 6 ch, 320 Kbps,48.0 KHz (английский)




General
Complete name : H:\релизы.торрентфайл\Child Eater (2016).avi
Format : AVI
Format/Info : Audio Video Interleave
File size : 1.16 GiB
Duration : 1h 22mn
Overall bit rate : 2 013 Kbps
Writing application : VirtualDubMod 1.5.4.1 (build 2178/release)
Writing library : VirtualDubMod build 2178/release

Video
ID : 0
Format : MPEG-4 Visual
Format profile : Advanced Simple@L5
Format settings, BVOP : No
Format settings, QPel : No
Format settings, GMC : No warppoints
Format settings, Matrix : Custom
Codec ID : XVID
Codec ID/Hint : XviD
Duration : 1h 22mn
Bit rate : 1 301 Kbps
Width : 720 pixels
Height : 336 pixels
Display aspect ratio : 2.143
Frame rate : 23.976 fps
Color space : YUV
Chroma subsampling : 4:2:0
Bit depth : 8 bits
Scan type : Progressive
Compression mode : Lossy
Bits/(Pixel*Frame) : 0.224
Stream size : 770 MiB (65%)
Writing library : XviD 1.2.1 (UTC 2008-12-04)

Audio #1
ID : 1
Format : AC-3
Format/Info : Audio Coding 3
Mode extension : CM (complete main)
Format settings, Endianness : Big
Codec ID : 2000
Duration : 1h 22mn
Bit rate mode : Constant
Bit rate : 384 Kbps
Channel(s) : 6 channels
Channel positions : Front: L C R, Side: L R, LFE
Sampling rate : 48.0 KHz
Bit depth : 16 bits
Compression mode : Lossy
Delay relative to video : 16ms
Stream size : 227 MiB (19%)
Alignment : Split accross interleaves
Interleave, duration : 96 ms (2.30 video frames)
Interleave, preload duration : 96 ms
Language : Russian

Audio #2
ID : 2
Format : AC-3
Format/Info : Audio Coding 3
Mode extension : CM (complete main)
Format settings, Endianness : Big
Codec ID : 2000
Duration : 1h 22mn
Bit rate mode : Constant
Bit rate : 320 Kbps
Channel(s) : 6 channels
Channel positions : Front: L C R, Side: L R, LFE
Sampling rate : 48.0 KHz
Bit depth : 16 bits
Compression mode : Lossy
Delay relative to video : 16ms
Stream size : 189 MiB (16%)
Alignment : Split accross interleaves
Interleave, duration : 96 ms (2.30 video frames)
Interleave, preload duration : 96 ms
Language : English

pb.wtf



Скачать Пожиратель детей через торрент http://i89.fastpic.ru/big/2017/0511/3e/dc0b23c64036a47a49f87c34d805dc3e.jpg Скачать фильм Пожиратель детей через торрент бесплантно в хорошем качестве Описание: Элен подрабатывает бебиситтером. В одну из ночей она понимает, что некоторые детские страхи вовсе не плод богатого ... 8.1 10 10
Торрент: Зарегистрирован [2017-05-11 10:18] · скачан: 349 раз
Статус: T временная
Размер: 1.16 GB
Как cкачать? Как скачать Пожиратель детей через торрент | qTorrent

% Раздел Тема Автор DL S | L
T Фильмы (мультфильмы) cо спонсором показа (Новинки AVI/MKV) [ 2.84 GB ] Пожиратель детей / Child Eater [2016 WEB-DL 720p] MVO [КОЛОБОК] bober100 Скачать
1 | 0
T Фильмы (мультфильмы) cо спонсором показа (Новинки AVI/MKV) [ 1.36 GB ] Пожиратель детей / Child Eater [2016 WEB-DLRip] MVO [КОЛОБОК] bober100 Скачать
1 | 0


Последний раз редактировалось: oleg8 (2017-05-11 12:34), всего редактировалось 2 раз(а)


>> Регистрируемся здесь <<






Отзывы и комментарии о схеме читаем и пишем здесь: ---> Отзывы и комментарии о схеме

Новые благодарочки в телеграм довольных пользователей:
скриншот   скриншот   скриншот   скриншот   скриншот

11-05-2017 13:44 Пожиратель детей Скачать торрент  

так вот он какой бабайка этотpb.wtf



11-05-2017 14:17 Пожиратель детей Скачать торрент  

жуть.я еще ихнего бабайку не посмотрел-байбаймена-а тут вон чего поспело pb.wtf



11-05-2017 21:17 Пожиратель детей Скачать торрент  

Трейлер ничего так. Надеюсь там не самое страшное показали. Завтра заценю на сон грядущий...

P.S.SASHA66, Байбаймен не впечатлил, по мне скучный фильм

P.P.S.После просмотра.... Сюжет изобилует клише, штампами и дебилизмом. Но, есть достаточно колоритный злодей, пугающие моменты и сравнительно небольшой хронометраж. Для малобюджетного фильма категории В, "Пожиратель детей" как минимум неплох. Перед сном скоротать час с небольшим самое то.pb.wtf



13-05-2017 19:40 Пожиратель детей Скачать торрент  

pb.wtf



15-05-2017 08:20 Пожиратель детей Скачать торрент  

мне фильм не понравился. это скорее комедия или пародия
, но никак не ужасы )pb.wtf



15-05-2017 19:44 Пожиратель детей Скачать торрент  

Закос под Джиперс Криперсpb.wtf



    Дорогой пользователь! Огромная просьба, поблагодарите релизера, оцените раздачу и оставьте свои комментарий, если Вы скачали Пожиратель детей через торрент бесплатно! Внесите свою лепту в развитие PiratBit!
    Комментировать посты могут только пользователи прошедшие не сложную регистрацию
    Показать сообщения:    

    Пожиратель детей через торрент
    Скачать бесплатно Пожиратель детей
    Пожиратель детей скачать торрент
    Пожиратель детей смотреть онлайн
    Cкачать фильм Пожиратель детей бесплатно
    Пожиратель детей скачать торрент в хорошем качестве
    Пожиратель детей смотреть онлайн бесплатно в хорошем качестве


    Вы не можете начинать темы
    Вы не можете отвечать на сообщения
    Вы не можете редактировать свои сообщения
    Вы не можете удалять свои сообщения
    Вы не можете голосовать в опросах
    Вы не можете прикреплять файлы к сообщениям
    Вы можете скачивать файлы