2 сезон

iTunes

MVO

1

2 сезон

iTunes

iTunes

1 сезон

RePack

30

Ultimate

ВАЖНО

ИГРА 18+

pack

RePack

MK11
pack

Легкие деньги

RePack

jed

RePack

fifa19

RePack

RDR2

RePack

NEED FOR SPEED™ PAYBACK

4 сезон

9 сезон

Бесстыжие 9 сезон

Все сериалы

все сериалы на PB.wtf

RePack

FAR CRY 5

Anonymous, добрый вечер, мы не успеваем собрать деньги на оплату серверов за декабрь и январь, помогите нам пожалуйста в это трудное время. В качестве благодарности мы отключим Вам всю рекламу на сайте (укажите свой ник в строку Ваше имя)!

×
  
Magnet ссылка

Другой мир: Войны крови в 3D / Underworld: Blood Wars in 3D (Анна Ферстер) [2016 г., Ужасы, боевик, BDRip 1080p, Дубляж Лицензия] Анаглиф (Дюбуа) pb.wtf

Другой мир: Войны крови в 3D через торрент pb.wtf

Размер: 5.21 GB | Добавлен: 3 года 8 мес. назад | Торрент скачан:56 раз
Скачать  

11-05-2017 15:06 Другой мир: Войны крови в 3D Скачать торрент  

Другой мир: Войны кровив 3D / Underworld: Blood Wars in 3D
Год выпуска: 2016
Страна: США
Жанр: Ужасы, боевик
Продолжительность: 01:31:49
Перевод: Дубляж Лицензия
Субтитры: Русские, украинские, английские

Режиссер: Анна Ферстер

Бюджет: $35 000 000
Премьера в мире: 24 ноября 2016



В ролях: Кейт Бекинсейл, Тео Джеймс, Лара Пулвер, Чарльз Дэнс, Тобайас Мензис, Брэдли Джеймс, Алисия Вела-Бэйли, Трент Гарретт, Дэйзи Хэд, Джеймс Фолкнер, Оливер Старк

Описание: И вновь продолжается бой, и сердцу тревожно в груди... Недобитые остатки утонченной аристократии, сосущей кровь из трудового народа, из последних сил держат оборону в каком-то задрипанном поместье, обставленном с безобразной роскошью. Их атакует местная группировка байкеров, борющихся за свое место под солнцем. И тех и других возглавляют новые лидеры взамен старых, изрубленных топором. Все ищут Селин и ее дочь Еву, ведь их кровь позволит любой из сторон получить решающее преимущество в борьбе за передел сфер влияния.

Доп. информация: Формат 3D: Анаглиф (Дюбуа)



Качество: BDRip 1080p
Формат: MKV
Видео кодек: H.264
Аудио кодек: AC3
Видео: AVC, 1920x1080 (16:9), 7513 kbps, 23,976 fps, 0.151 bpp
Аудио#1: русский / AC3 / 5.1 / 48 kHz / 640 kbps / 16 bit ||

скриншот   скриншот   скриншот   скриншот   скриншот  

x264 [info]: frame I:1763 Avg QP: 8.53 size:189165
x264 [info]: frame P:41029 Avg QP:11.25 size: 67675
x264 [info]: frame B:88920 Avg QP:13.40 size: 22748
x264 [info]: consecutive B-frames: 7.6% 9.0% 13.9% 37.6% 31.9%


Общее
Уникальный идентификатор : 178004554813412086725314924701320581721 (0x85EA6E23E5AB3365B42293AD25299259)
Полное имя : E:\Underworld.Blood.Wars.2016.3D.BDRip.1080p.(Anaglyph_Dubois).mkv
Формат : Matroska
Версия формата : Version 4 / Version 2
Размер файла : 5,21 Гбайт
Продолжительность : 1 ч. 31 м.
Общий поток : 8145 Кбит/сек
Дата кодирования : UTC 2017-05-11 13:10:19
Программа кодирования : mkvmerge v9.1.0 ('Little Earthquakes') 64bit
Библиотека кодирования : libebml v1.3.3 + libmatroska v1.4.4

Видео
Идентификатор : 1
Формат : AVC
Формат/Информация : Advanced Video Codec
Профиль формата : High@L4.1
MultiView_Count : 2
MultiView_Layout : Anaglyph (cyan/red)
Параметр CABAC формата : Да
Параметр ReFrames формата : 4 кадра
Идентификатор кодека : V_MPEG4/ISO/AVC
Продолжительность : 1 ч. 31 м.
Битрейт : 7513 Кбит/сек
Ширина : 1920 пикселей
Высота : 1080 пикселей
Соотношение сторон : 16:9
Режим частоты кадров : Постоянный
Частота кадров : 23,976 кадра/сек
Цветовое пространство : YUV
Субдискретизация насыщенности : 4:2:0
Битовая глубина : 8 бит
Тип развёртки : Прогрессивная
Бит/(Пиксели*Кадры) : 0.151
Размер потока : 4,80 Гбайт (92%)
Заголовок : Другой мир: Войны крови / Underworld: Blood Wars 3D(Anaglyph_Dubois)
Библиотека кодирования : x264 core 146 r2538 121396c
Настройки программы : cabac=1 / ref=4 / deblock=1:-1:-1 / analyse=0x3:0x113 / me=umh / subme=9 / psy=1 / psy_rd=1.00:0.00 / mixed_ref=1 / me_range=24 / chroma_me=1 / trellis=2 / 8x8dct=1 / cqm=0 / deadzone=21,11 / fast_pskip=1 / chroma_qp_offset=-2 / threads=8 / lookahead_threads=1 / sliced_threads=0 / nr=0 / decimate=0 / interlaced=0 / bluray_compat=0 / constrained_intra=0 / bframes=4 / b_pyramid=2 / b_adapt=2 / b_bias=0 / direct=3 / weightb=1 / open_gop=0 / weightp=2 / keyint=250 / keyint_min=23 / scenecut=40 / intra_refresh=0 / rc_lookahead=50 / rc=2pass / mbtree=1 / bitrate=7513 / ratetol=1.0 / qcomp=0.60 / qpmin=0 / qpmax=69 / qpstep=4 / cplxblur=20.0 / qblur=0.5 / vbv_maxrate=14000 / vbv_bufsize=14000 / nal_hrd=none / filler=0 / ip_ratio=1.40 / aq=1:1.00
Язык : English
Default : Да
Forced : Нет

Аудио
Идентификатор : 2
Формат : AC-3
Формат/Информация : Audio Coding 3
Расширение режима : CM (complete main)
Параметр Endianness формата : Big
Идентификатор кодека : A_AC3
Продолжительность : 1 ч. 31 м.
Вид битрейта : Постоянный
Битрейт : 640 Кбит/сек
Каналы : 6 каналов
Расположение каналов : Front: L C R, Side: L R, LFE
Частота : 48,0 КГц
Частота кадров : 31,250 кадров/сек (1536 spf)
Метод сжатия : С потерями
Размер потока : 419 Мбайт (8%)
Заголовок : Dub [License]
Язык : Russian
Default : Да
Forced : Нет

Текст #1
Идентификатор : 3
Формат : UTF-8
Идентификатор кодека : S_TEXT/UTF8
Идентификатор кодека/Информация : UTF-8 Plain Text
Продолжительность : 1 ч. 30 м.
Битрейт : 71 бит/сек
Count of elements : 837
Размер потока : 47,3 Кбайт (0%)
Заголовок : iTunes
Язык : Russian
Default : Нет
Forced : Нет

Текст #2
Идентификатор : 4
Формат : UTF-8
Идентификатор кодека : S_TEXT/UTF8
Идентификатор кодека/Информация : UTF-8 Plain Text
Продолжительность : 1 ч. 30 м.
Битрейт : 63 бит/сек
Count of elements : 821
Размер потока : 41,9 Кбайт (0%)
Заголовок : iTunes
Язык : Ukrainian
Default : Нет
Forced : Нет

Текст #3
Идентификатор : 5
Формат : UTF-8
Идентификатор кодека : S_TEXT/UTF8
Идентификатор кодека/Информация : UTF-8 Plain Text
Продолжительность : 1 ч. 30 м.
Битрейт : 42 бит/сек
Count of elements : 820
Размер потока : 27,9 Кбайт (0%)
Заголовок : Full
Язык : English
Default : Нет
Forced : Нет

Меню
00:00:00.000 : en:00:00:00.000
00:04:30.479 : en:00:04:30.479
00:09:25.315 : en:00:09:25.315
00:13:59.964 : en:00:13:59.964
00:18:56.010 : en:00:18:56.010
00:24:27.091 : en:00:24:27.091
00:31:15.957 : en:00:31:15.957
00:36:26.810 : en:00:36:26.810
00:42:17.034 : en:00:42:17.034
00:47:37.646 : en:00:47:37.646
00:52:22.181 : en:00:52:22.181
00:58:59.327 : en:00:58:59.327
01:04:31.659 : en:01:04:31.659
01:08:52.128 : en:01:08:52.128
01:13:47.131 : en:01:13:47.131
01:20:08.512 : en:01:20:08.512

pb.wtf



Скачать Другой мир: Войны крови в 3D через торрент http://i023.radikal.ru/1702/bf/133712a7ac3d.jpg Скачать фильм Другой мир: Войны крови в 3D через торрент бесплантно в хорошем качестве Описание: И вновь продолжается бой, и сердцу тревожно в груди... Недобитые остатки утонченной аристократии, сосущей кровь из трудового ... 10 10 2
Торрент: Зарегистрирован [2017-05-11 15:06] · скачан: 56 раз
Статус: √ проверено
Размер: 5.21 GB
Как cкачать? Как скачать Другой мир: Войны крови в 3D через торрент | UTorrent

28-11-2019 20:33  

Отключить всю рекламу на сайте

    Дорогой пользователь! Огромная просьба, поблагодарите релизера, оцените раздачу и оставьте свои комментарий, если Вы скачали Другой мир: Войны крови в 3D через торрент бесплатно! Внесите свою лепту в развитие PiratBit!
    Комментировать посты могут только пользователи прошедшие не сложную регистрацию
    Показать сообщения:    

    Другой мир: Войны крови в 3D через торрент
    Скачать бесплатно Другой мир: Войны крови в 3D
    Другой мир: Войны крови в 3D скачать торрент
    Другой мир: Войны крови в 3D смотреть онлайн
    Cкачать фильм Другой мир: Войны крови в 3D бесплатно
    Другой мир: Войны крови в 3D скачать торрент в хорошем качестве
    Другой мир: Войны крови в 3D смотреть онлайн бесплатно в хорошем качестве


    Вы не можете начинать темы
    Вы не можете отвечать на сообщения
    Вы не можете редактировать свои сообщения
    Вы не можете удалять свои сообщения
    Вы не можете голосовать в опросах
    Вы не можете прикреплять файлы к сообщениям
    Вы можете скачивать файлы