Ссылка на приватное зеркало нашего сайта всего за 1$. Внимание количество ограничено!!!

2 сезон

iTunes

1 сезон

1

2 сезон

2 сезон

iTunes

1 сезон

RePack

30

Ultimate

ВАЖНО

ИГРА 18+

pack

RePack

MK11
pack

Забери бонус

RePack

jed

!!Акция!!

Alien_Rage

RePack

fifa19

RePack

Assassins Creed: Odyssey

RePack

NEED FOR SPEED™ PAYBACK

4 сезон

9 сезон

Бесстыжие 9 сезон

Все сериалы

все сериалы на PB.wtf

RePack

FAR CRY 5
  

Последнее королевство / Thе Lаst Kіngdоm / Сезон: 2 / Серии: 1-8 из 8 (Стефен Бутчард) [2017, исторический, драма, WEB-DLRip] MVO [NеwStudіо] pb.wtf

Последнее королевство через торрент pb.wtf

Раздают: 2 [ 0 KB/s ]
Размер: 5.47 GB | Добавлен: 2 года назад | Торрент скачан:121 раз
Скачать  

11-05-2017 15:42 Последнее королевство Скачать торрент  

Последнее королевство / Thе Lаst KіngdоmГод выпуска: 2017
Страна: Великобритания
Жанр: исторический, драма
Всего серий: 8
Продолжительность: 8 х ~ 00:55:00
Перевод: Профессиональный многоголосый -
Субтитры: отсутствуют

Режиссер: Стефен Бутчард

rating

В ролях:

Александр Дреймон, Николас Роу, Эмили Кокс, Дэвид Доусон, Иэн Харт, Герард Кернс, Алек Ньюман и др.

Описание:

Сюжет рассказывает о временах правления короля Уэссекса Альфреда Великого, сумевшего отвоевать английские земли у датских викингов — заморских захватчиков. Главным героем повествования выступает ещё в младенчестве похищенный данами Утред — потомок благородного саксонского рода. Воспитанный как викинг, в очень непростой момент жизненного выбора молодой воин должен будет решить для себя, чью сторону он примет в решающих сражениях за судьбу древней Британии.

Качество: WEB-DLRip
Формат: AVI
Видео кодек: XviD
Аудио кодек: MP3

Видео: 720х400 (1.80:1), 25 fрs, ХvіD MРЕG-4 ~1424 kbрs аvg, 0.198 bіt/ріхеl
Аудио#1: RUS: 48 kHz, MРЕG Lауеr 3, 2 сh, ~128.00 kbрs аvg
Аудио#2: ЕNG: 48 kHz, MРЕG Lауеr 3, 2 сh, ~128.00 kbрs аvg

скриншот   скриншот   скриншот   скриншот   скриншот  

Общее
Полное имя : D:\Последнее королевство (Season 02) NewStudio\The.Last.Kingdom.s02e01.WEBDLRip.NewStudio.TV.avi
Формат : AVI
Формат/Информация : Audio Video Interleave
Размер файла : 700 Мбайт
Продолжительность : 57 м. 44 с.
Общий поток : 1695 Кбит/сек
Программа кодирования : VirtualDubMod 1.5.10.2 (build 2540/release)
Библиотека кодирования : VirtualDubMod build 2540/release

Видео
Идентификатор : 0
Формат : MPEG-4 Visual
Профиль формата : Advanced Simple@L5
Параметр BVOP формата : 2
Параметр QPel формата : Да
Параметр GMC формата : Без точки перехода
Параметр матрицы формата : Default (MPEG)
Режим смешивания : Сжатый битовый поток
Идентификатор кодека : XVID
Идентификатор кодека/Подсказка : XviD
Продолжительность : 57 м. 44 с.
Битрейт : 1424 Кбит/сек
Ширина : 720 пикселей
Высота : 400 пикселей
Соотношение сторон : 16:9
Частота кадров : 25,000 кадров/сек
Цветовое пространство : YUV
Субдискретизация насыщенности : 4:2:0
Битовая глубина : 8 бит
Тип развёртки : Прогрессивная
Метод сжатия : С потерями
Бит/(Пиксели*Кадры) : 0.198
Размер потока : 588 Мбайт (84%)
Библиотека кодирования : XviD 73

Аудио #1
Идентификатор : 1
Формат : MPEG Audio
Версия формата : Version 1
Профиль формата : Layer 3
Режим : Joint stereo
Расширение режима : MS Stereo
Идентификатор кодека : 55
Идентификатор кодека/Подсказка : MP3
Продолжительность : 57 м. 44 с.
Вид битрейта : Постоянный
Битрейт : 128 Кбит/сек
Каналы : 2 канала
Частота : 48,0 КГц
Метод сжатия : С потерями
Размер потока : 52,9 Мбайт (8%)
Выравнивание : Соединение по промежуткам
Продолжительность промежутка : 40 мс. (1,00 видеокадр)
Время предзагрузки промежутка : 504 мс.

Аудио #2
Идентификатор : 2
Формат : MPEG Audio
Версия формата : Version 1
Профиль формата : Layer 3
Режим : Joint stereo
Расширение режима : MS Stereo
Идентификатор кодека : 55
Идентификатор кодека/Подсказка : MP3
Продолжительность : 57 м. 44 с.
Вид битрейта : Постоянный
Битрейт : 128 Кбит/сек
Каналы : 2 канала
Частота : 48,0 КГц
Метод сжатия : С потерями
Размер потока : 52,9 Мбайт (8%)
Выравнивание : Соединение по промежуткам
Продолжительность промежутка : 40 мс. (1,00 видеокадр)
Время предзагрузки промежутка : 504 мс.
Библиотека кодирования : LAME3.99r
Настройки программы : -m j -V 4 -q 2 -lowpass 17 -b 128

pb.wtf



Скачать Последнее королевство через торрент http://i90.fastpic.ru/big/2017/0321/ff/c85539fc82743aba4a7cecda419288ff.png Скачать фильм Последнее королевство через торрент бесплантно в хорошем качестве Описание: Сюжет рассказывает о временах правления короля Уэссекса Альфреда Великого, сумевшего отвоевать английские земли у датских ... 10 10 8
Торрент: Зарегистрирован [2018-11-19 18:15] · скачан: 121 раз
Статус: √ проверено
Размер: 5.47 GB
Как cкачать? Как скачать Последнее королевство через торрент | qTorrent

28-11-2019 20:33  

Отключить всю рекламу на сайте

    Дорогой пользователь! Огромная просьба, поблагодарите релизера, оцените раздачу и оставьте свои комментарий, если Вы скачали Последнее королевство через торрент бесплатно! Внесите свою лепту в развитие PiratBit!
    Комментировать посты могут только пользователи прошедшие не сложную регистрацию
    Показать сообщения:    

    Последнее королевство через торрент
    Скачать бесплатно Последнее королевство
    Последнее королевство скачать торрент
    Последнее королевство смотреть онлайн
    Cкачать фильм Последнее королевство бесплатно
    Последнее королевство скачать торрент в хорошем качестве
    Последнее королевство смотреть онлайн бесплатно в хорошем качестве


    Вы не можете начинать темы
    Вы не можете отвечать на сообщения
    Вы не можете редактировать свои сообщения
    Вы не можете удалять свои сообщения
    Вы не можете голосовать в опросах
    Вы не можете прикреплять файлы к сообщениям
    Вы можете скачивать файлы