Ссылка на приватное зеркало нашего сайта всего за 1$. Внимание количество ограничено!!!

2 сезон

iTunes

1 сезон

1

2 сезон

2 сезон

iTunes

1 сезон

RePack

30

Ultimate

ВАЖНО

ИГРА 18+

pack

RePack

MK11
pack

Забери бонус

RePack

jed

!!Акция!!

Alien_Rage

RePack

fifa19

RePack

Assassins Creed: Odyssey

RePack

NEED FOR SPEED™ PAYBACK

4 сезон

9 сезон

Бесстыжие 9 сезон

Все сериалы

все сериалы на PB.wtf

RePack

FAR CRY 5
  

Олимп / Olympus / 1 сезон / 1-13 серии из 13 (Ник Уиллинг) [2015, фэнтези, HDTVRip] MVO [Jaskier] pb.wtf

Олимп через торрент pb.wtf

Размер: 7.48 GB | Добавлен: 3 года 6 мес. назад | Торрент скачан:75 раз
Скачать  

11-05-2017 20:27 Олимп Скачать торрент  

Олимп / OlympusГод выпуска: 2015
Страна: Великобритания, Канада
Жанр: фэнтези
Всего серий: 13
Продолжительность: 13 x ~ 00:43:00
Перевод: Профессиональный (многоголосый) -
Субтитры: отсутствуют

Режиссер: Ник Уиллинг

rating

В ролях:

Сонита Генри, Уэйн Барнс, Грэхэм Шилз, Кэс Анвар, Мэтт Фрюэр, Джон Эммет Трэйси, Софиа Локлин Херт, Леви Миден, Дэвид Франко, Полин Иган

Описание:

Несколько храбрых мужчин и женщин изгнали богов в потусторонний мир ─ место, названное Подземным Миром или Царством Аида. В 2015 г. до нашей эры один неопытный молодой человек отправляется спасать оракула храма Геи. Ему предстоит испытать любовь, предательство, разочарование и изгнание. Пройдя тяжелый путь, он превращается в безжалостного лидера, чету самим богам.

Качество: HDTVRip
Формат: AVI
Видео кодек: XviD
Аудио кодек: AC3

Видео: 720x400 (1.80:1), 23.976 fps, XviD build 50 ~1500 kbps avg, 0.22 bit/pixel
Аудио#1: RUS: 48 kHz, AC3 Dolby Digital, 3/2 (L,C,R,l,r) + LFE ch, ~384 kbps
Аудио#2: ЕNG: 48 kHz, MРЕG Lауеr 3, 2 сh, ~192.00 kbрs аvg
скриншот   скриншот   скриншот   скриншот   скриншот  

скриншот   скриншот   скриншот   скриншот  

Общее
Полное имя : C:\Ol1mp.s01.Jaskier.HDTVRip\Ol1mp.s01e01.Jaskier.HDTVRip.avi
Формат : AVI
Формат/Информация : Audio Video Interleave
Размер файла : 640 Мбайт
Продолжительность : 42 м. 59 с.
Общий поток : 2083 Кбит/сек
Программа кодирования : VirtualDubMod 1.5.10.2 (build 2540/release)
Библиотека кодирования : VirtualDubMod build 2540/release

Видео
Идентификатор : 0
Формат : MPEG-4 Visual
Профиль формата : Advanced Simple@L5
Параметр BVOP формата : 2
Параметр QPel формата : Нет
Параметр GMC формата : Без точки перехода
Параметр матрицы формата : Default (H.263)
Идентификатор кодека : XVID
Идентификатор кодека/Подсказка : XviD
Продолжительность : 42 м. 59 с.
Битрейт : 1493 Кбит/сек
Ширина : 720 пикселей
Высота : 400 пикселей
Соотношение сторон : 16:9
Частота кадров : 23,976 (24000/1001) кадра/сек
Цветовое пространство : YUV
Субдискретизация насыщенности : 4:2:0
Битовая глубина : 8 бит
Тип развёртки : Прогрессивная
Метод сжатия : С потерями
Бит/(Пиксели*Кадры) : 0.216
Размер потока : 459 Мбайт (72%)
Библиотека кодирования : XviD 1.2.1 (UTC 2008-12-04)

Аудио #1
Идентификатор : 1
Формат : AC-3
Формат/Информация : Audio Coding 3
Расширение режима : CM (complete main)
Параметр Endianness формата : Big
Идентификатор кодека : 2000
Продолжительность : 42 м. 59 с.
Вид битрейта : Постоянный
Битрейт : 384 Кбит/сек
Каналы : 6 каналов
Расположение каналов : Front: L C R, Side: L R, LFE
Частота : 48,0 КГц
Частота кадров : 31,250 кадров/сек (1536 spf)
Метод сжатия : С потерями
Размер потока : 118 Мбайт (18%)
Выравнивание : Разделение по промежуткам
Продолжительность промежутка : 42 мс. (1,00 видеокадр)
Время предзагрузки промежутка : 500 мс.

Аудио #2
Идентификатор : 2
Формат : MPEG Audio
Версия формата : Version 1
Профиль формата : Layer 3
Режим : Joint stereo
Расширение режима : MS Stereo
Идентификатор кодека : 55
Идентификатор кодека/Подсказка : MP3
Продолжительность : 42 м. 59 с.
Вид битрейта : Постоянный
Битрейт : 192 Кбит/сек
Каналы : 2 канала
Частота : 48,0 КГц
Метод сжатия : С потерями
Размер потока : 59,0 Мбайт (9%)
Выравнивание : Соединение по промежуткам
Продолжительность промежутка : 42 мс. (1,00 видеокадр)
Время предзагрузки промежутка : 504 мс.

pb.wtf



Скачать Олимп через торрент http://rudb.org/img/2015_04/i553e8d3871427.jpg Скачать фильм Олимп через торрент бесплантно в хорошем качестве Описание: Несколько храбрых мужчин и женщин изгнали богов в потусторонний мир ─ место, названное Подземным Миром или Царством Аида. В 2015 ... 8.7 10 7
Торрент: Зарегистрирован [2017-05-11 20:27] · скачан: 75 раз
Статус: √ проверено
Размер: 7.48 GB
Как cкачать? Как скачать Олимп через торрент | qTorrent

% Раздел Тема Автор DL S | L
Зарубежные сериалы [ 5.19 GB ] Олимп / Olympus / Сезон: 1 / Серии 1-13 из 13 [2015 BDRip] MVO [BaibaKo] GEKADOL Скачать
1 | 0
Зарубежные сериалы [ 31.51 GB ] Олимп / Olympus / Сезон: 1 / Серии 1-13 из 13 [2015 BDRip-720р] MVO [BaibaKo] GEKADOL Скачать
1 | 0

28-11-2019 20:33  

Отключить всю рекламу на сайте

    Дорогой пользователь! Огромная просьба, поблагодарите релизера, оцените раздачу и оставьте свои комментарий, если Вы скачали Олимп через торрент бесплатно! Внесите свою лепту в развитие PiratBit!
    Комментировать посты могут только пользователи прошедшие не сложную регистрацию
    Показать сообщения:    

    Олимп через торрент
    Скачать бесплатно Олимп
    Олимп скачать торрент
    Олимп смотреть онлайн
    Cкачать фильм Олимп бесплатно
    Олимп скачать торрент в хорошем качестве
    Олимп смотреть онлайн бесплатно в хорошем качестве


    Вы не можете начинать темы
    Вы не можете отвечать на сообщения
    Вы не можете редактировать свои сообщения
    Вы не можете удалять свои сообщения
    Вы не можете голосовать в опросах
    Вы не можете прикреплять файлы к сообщениям
    Вы можете скачивать файлы