Ссылка на приватное зеркало нашего сайта всего за 1$. Внимание количество ограничено!!!

2 сезон

iTunes

1 сезон

1

iTunes

iTunes

iTunes

1 сезон

RePack

30

ИГРА 18+

pack

ВАЖНО

!!Акция!!

Alien_RageХит недели

RePack

MK11
pack

Забери бонус

RePack

jed

!!Акция!!

Alien_Rage

RePack

fifa19

RePack

Assassins Creed: Odyssey

RePack

NEED FOR SPEED™ PAYBACK

4 сезон

9 сезон

Бесстыжие 9 сезон

Все сериалы

все сериалы на PB.wtf

RePack

FAR CRY 5
  

Сплит / Split (М. Найт Шьямалан) [2016 г., Ужасы, триллер, BDRip 720p] [iTunes] DUB+MVO+AVO pb.wtf

Сплит через торрент pb.wtf

Размер: 11.16 GB | Добавлен: 3 года 5 мес. назад | Торрент скачан:144 раза
Скачать  

11-05-2017 21:01 Сплит Скачать торрент  

Сплит / Split
Год выпуска: 2016
Страна: США
Жанр: Ужасы, триллер
Продолжительность: 01:57:07
Перевод: Дубляж - [iTunes]
Субтитры: Русские, английские

Режиссер: М. Найт Шьямалан

rating

В ролях:

Джеймс МакЭвой, Бетти Бакли, Иззи Коффи, Накия Диллард, Дэнн Финк, Кэш Гойнс, Розмари Ховард, Нил Хафф, Аня Тейлор-Джой

Описание:

Кевин — человек, в котором живет не менее двадцати трех личностей, вынужден похитить трех девушек подросткового возраста. Тем временем, пока они находятся в заточении, самая главная личность Кевина — Чудовище — материализуется

Качество: BDRip 720p
Формат: MKV
Видео кодек: H.264
Аудио кодек: AC3/DTS

Видео: MPEG-4 AVC, 1280x536, 8723 Кbit/s, 23.976 fps, 0.530 bit/pixel
Аудио#1: 48 kHz, AC3, 5.1, 384 Kbps | iTunes | RUS |
Аудио#2: 48 kHz, DTS, 5.1, 1510 Kbps | Paradox&Omskbird | RUS |
Аудио#3: 48 kHz, DTS, 5.1, 1510 Kbps | Авторский | RUS |
Аудио#4: 48 kHz, DTS, 5.1, 1510 Kbps | Оригинал | ENG |
скриншот   скриншот   скриншот   скриншот   скриншот  

General
Unique ID : 184611442922738281680744288935473604239 (0x8AE2DEDFA6A8F524AA6B4D741A68668F)
Complete name : F:VideoSplit.2016.BDRip.720p.ExKinoRay.mkv
Format : Matroska
Format version : Version 4 / Version 2
File size : 11.2 GiB
Duration : 1 h 57 min
Overall bit rate : 13.6 Mb/s
Encoded date : UTC 2017-05-10 22:37:13
Writing application : mkvmerge v11.0.0 ('Alive') 64bit
Writing library : libebml v1.3.4 + libmatroska v1.4.5

Video
ID : 1
Format : AVC
Format/Info : Advanced Video Codec
Format profile : High@L4.1
Format settings, CABAC : Yes
Format settings, ReFrames : 12 frames
Codec ID : V_MPEG4/ISO/AVC
Duration : 1 h 57 min
Bit rate : 8 723 kb/s
Width : 1 280 pixels
Height : 536 pixels
Display aspect ratio : 2.40:1
Frame rate mode : Constant
Frame rate : 23.976 (24000/1001) FPS
Color space : YUV
Chroma subsampling : 4:2:0
Bit depth : 8 bits
Scan type : Progressive
Bits/(Pixel*Frame) : 0.530
Stream size : 7.13 GiB (64%)
Writing library : x264 core 146 r2538 121396c
Encoding settings : cabac=1 / ref=12 / deblock=1:-2:-2 / analyse=0x3:0x133 / me=umh / subme=10 / psy=1 / psy_rd=1.00:0.00 / mixed_ref=1 / me_range=32 / chroma_me=1 / trellis=2 / 8x8dct=1 / cqm=0 / deadzone=21,11 / fast_pskip=0 / chroma_qp_offset=-2 / threads=12 / lookahead_threads=1 / sliced_threads=0 / nr=0 / decimate=0 / interlaced=0 / bluray_compat=0 / constrained_intra=0 / bframes=6 / b_pyramid=2 / b_adapt=2 / b_bias=0 / direct=3 / weightb=1 / open_gop=0 / weightp=2 / keyint=230 / keyint_min=22 / scenecut=40 / intra_refresh=0 / rc_lookahead=60 / rc=2pass / mbtree=1 / bitrate=8723 / ratetol=1.0 / qcomp=0.60 / qpmin=0 / qpmax=69 / qpstep=4 / cplxblur=20.0 / qblur=0.5 / vbv_maxrate=50000 / vbv_bufsize=50000 / nal_hrd=none / filler=0 / ip_ratio=1.40 / aq=1:1.00
Language : English
Default : Yes
Forced : No

Audio #1
ID : 2
Format : AC-3
Format/Info : Audio Coding 3
Format settings, Endianness : Big
Codec ID : A_AC3
Duration : 1 h 57 min
Bit rate mode : Constant
Bit rate : 384 kb/s
Channel(s) : 6 channels
Channel positions : Front: L C R, Side: L R, LFE
Sampling rate : 48.0 kHz
Frame rate : 31.250 FPS (1536 spf)
Bit depth : 16 bits
Compression mode : Lossy
Stream size : 322 MiB (3%)
Title : iTunes
Language : Russian
Service kind : Complete Main
Default : Yes
Forced : No

Audio #2
ID : 3
Format : DTS
Format/Info : Digital Theater Systems
Mode : 16
Format settings, Endianness : Big
Codec ID : A_DTS
Duration : 1 h 57 min
Bit rate mode : Constant
Bit rate : 1 510 kb/s
Channel(s) : 6 channels
Channel positions : Front: L C R, Side: L R, LFE
Sampling rate : 48.0 kHz
Frame rate : 93.750 FPS (512 spf)
Bit depth : 24 bits
Compression mode : Lossy
Stream size : 1.24 GiB (11%)
Title : MVO
Language : Russian
Default : No
Forced : No

Audio #3
ID : 4
Format : DTS
Format/Info : Digital Theater Systems
Mode : 16
Format settings, Endianness : Big
Codec ID : A_DTS
Duration : 1 h 57 min
Bit rate mode : Constant
Bit rate : 1 509 kb/s
Channel(s) : 6 channels
Channel positions : Front: L C R, Side: L R, LFE
Sampling rate : 48.0 kHz
Frame rate : 93.750 FPS (512 spf)
Bit depth : 24 bits
Compression mode : Lossy
Stream size : 1.23 GiB (11%)
Title : AVO
Language : Russian
Default : No
Forced : No

Audio #4
ID : 5
Format : DTS
Format/Info : Digital Theater Systems
Mode : 16
Format settings, Endianness : Big
Codec ID : A_DTS
Duration : 1 h 57 min
Bit rate mode : Constant
Bit rate : 1 509 kb/s
Channel(s) : 6 channels
Channel positions : Front: L C R, Side: L R, LFE
Sampling rate : 48.0 kHz
Frame rate : 93.750 FPS (512 spf)
Bit depth : 24 bits
Compression mode : Lossy
Stream size : 1.23 GiB (11%)
Title : Original
Language : English
Default : No
Forced : No

Text #1
ID : 6
Format : UTF-8
Codec ID : S_TEXT/UTF8
Codec ID/Info : UTF-8 Plain Text
Duration : 1 h 51 min
Bit rate : 75 b/s
Count of elements : 1236
Stream size : 62.1 KiB (0%)
Title : Full
Language : Russian
Default : No
Forced : No

Text #2
ID : 7
Format : UTF-8
Codec ID : S_TEXT/UTF8
Codec ID/Info : UTF-8 Plain Text
Duration : 1 h 53 min
Bit rate : 43 b/s
Count of elements : 1274
Stream size : 36.3 KiB (0%)
Title : Full
Language : English
Default : No
Forced : No

Text #3
ID : 8
Format : UTF-8
Codec ID : S_TEXT/UTF8
Codec ID/Info : UTF-8 Plain Text
Duration : 1 h 51 min
Bit rate : 48 b/s
Count of elements : 1397
Stream size : 39.3 KiB (0%)
Title : SDH
Language : English
Default : No
Forced : No

Text #4
ID : 9
Format : UTF-8
Codec ID : S_TEXT/UTF8
Codec ID/Info : UTF-8 Plain Text
Duration : 1 h 53 min
Bit rate : 57 b/s
Count of elements : 1399
Stream size : 47.8 KiB (0%)
Title : SDH (Colored)
Language : English
Default : No
Forced : No

Menu
00:00:00.000 : en:00:00:00.000
00:06:08.451 : en:00:06:08.451
00:14:19.025 : en:00:14:19.025
00:20:49.373 : en:00:20:49.373
00:24:14.536 : en:00:24:14.536
00:28:37.049 : en:00:28:37.049
00:35:47.979 : en:00:35:47.979
00:42:35.386 : en:00:42:35.386
00:49:06.068 : en:00:49:06.068
00:54:09.413 : en:00:54:09.413
01:00:24.496 : en:01:00:24.496
01:06:22.562 : en:01:06:22.562
01:12:31.222 : en:01:12:31.222
01:19:35.771 : en:01:19:35.771
01:25:25.829 : en:01:25:25.829
01:29:16.560 : en:01:29:16.560
01:34:08.226 : en:01:34:08.226
01:40:45.998 : en:01:40:45.998
01:47:40.287 : en:01:47:40.287
01:52:26.740 : en:01:52:26.740

pb.wtf



Скачать Сплит через торрент http://s014.radikal.ru/i328/1705/77/253603a8a08a.jpg Скачать фильм Сплит через торрент бесплантно в хорошем качестве Описание: Кевин — человек, в котором живет не менее двадцати трех личностей, вынужден похитить трех девушек подросткового возраста. Тем ... 9 10 8
Info! Золотая раздача, скачанное не засчитывается.
Торрент: Зарегистрирован [2017-05-11 21:01] · скачан: 144 раз
Статус: √ проверено
Размер: 11.16 GB
Как cкачать? Как скачать Сплит через торрент | qTorrent

% Раздел Тема Автор DL S | L
Фильмы [HD 720p, 1080p] (Хороший звук DUB, MVO) [ 20.73 GB ] Сплит / Split [2016 BDRip 1080p] [] DUB+MVO+3xAVO bober100 Скачать
1 | 0
Фильмы (Blu-ray, BD-Remux, HDDVD) [ 41.52 GB ] Сплит / Расстройство личности / Split [2016 BDRemux 1080p] DUB + MVO + 3xAVO sheker187 Скачать
1 | 0
Ultra HD (UHD: 2K, 4K, 8K) — видео сверхвысокой чёткости [ 58.08 GB ] Сплит / Split [2016 UHD BDRemux 2160p] MVO [Paradox&Omskbird] +AVO [Д.Есарев] +DUB [] bober100 Скачать
1 | 0

28-11-2019 20:33  

Отключить всю рекламу на сайте

05-08-2018 13:34 Сплит Скачать торрент  

чет скорости совсем нетpb.wtf



22-08-2018 20:32 Сплит Скачать торрент  

на 5-м скрине брюси уиллис? )pb.wtf



12-04-2019 08:34 Сплит Скачать торрент  

mrAmerica писал(а):

на 5-м скрине брюси уиллис? )

Да, отсылка к Неуязвимому.pb.wtf



    Дорогой пользователь! Огромная просьба, поблагодарите релизера, оцените раздачу и оставьте свои комментарий, если Вы скачали Сплит через торрент бесплатно! Внесите свою лепту в развитие PiratBit!
    Комментировать посты могут только пользователи прошедшие не сложную регистрацию
    Показать сообщения:    

    Сплит через торрент
    Скачать бесплатно Сплит
    Сплит скачать торрент
    Сплит смотреть онлайн
    Cкачать фильм Сплит бесплатно
    Сплит скачать торрент в хорошем качестве
    Сплит смотреть онлайн бесплатно в хорошем качестве


    Вы не можете начинать темы
    Вы не можете отвечать на сообщения
    Вы не можете редактировать свои сообщения
    Вы не можете удалять свои сообщения
    Вы не можете голосовать в опросах
    Вы не можете прикреплять файлы к сообщениям
    Вы можете скачивать файлы