2 сезон

iTunes

MVO

1

2 сезон

iTunes

iTunes

1 сезон

RePack

30

Ultimate

ВАЖНО

ИГРА 18+

pack

RePack

MK11
pack

Легкие деньги

RePack

jed

RePack

fifa19

RePack

RDR2

RePack

NEED FOR SPEED™ PAYBACK

4 сезон

9 сезон

Бесстыжие 9 сезон

Все сериалы

все сериалы на PB.wtf

RePack

FAR CRY 5

Anonymous, доброй ночи, мы не успеваем собрать деньги на оплату серверов за декабрь и январь, помогите нам пожалуйста в это трудное время. В качестве благодарности мы отключим Вам всю рекламу на сайте (укажите свой ник в строку Ваше имя)!

×
  
Magnet ссылка

Борстал / Borstal (Стивен М. Смит) [2017 г., драма, WEB-DLRip, Любительский (многоголосый)["Синема УС"]] pb.wtf

Борстал через торрент pb.wtf

Размер: 1.37 GB | Добавлен: 3 года 8 мес. назад | Торрент скачан:216 раз
Скачать  

12-05-2017 03:04 Борстал Скачать торрент  

Борстал / Borstal
Год выпуска: 2017
Страна: Великобритания
Жанр: драма
Продолжительность: 01:28:24
Перевод: Любительский (многоголосый)["Синема УС"]
Субтитры: нет

Режиссер: Стивен М. Смит

rating

В ролях: Мэттью Уинтерс, Пэтрик Килпэтрик, Тони Фадил, Сонни Денем, Джон-Пол Гейтс, Тиффани-Эллен Робинсон, Рори Стоктон, Люк Энтони мл., Кевин Хоршэм, Мария Остин

Описание: Парню по имени Крис предстоит провести два года в суровой Борстальской тюрьме. Здесь он сталкивается с местными порядками, самодурством надзирателей, находит новых друзей и наблюдает за теневыми играми начальства. Крис хочет лишь отбыть положенный срок и как можно скорее освободиться, но сокамерники вряд ли позволят ему это сделать.

Доп. информация: ПРИСУТСТВУЕТ РЕКЛАМА!

Качество: WEB-DLRip
Формат: AVI
Видео кодек: XviD
Аудио кодек: AC3
Видео: XviD,1819 kb/s, 720x288,25.000 fps
Аудио#1: AC3, 384 kb/s ,2 ch,48.0 KHz



General
Complete name : H:\релизы.торрентфайл\Borstal.2017.P.WEB-DLRip.14OOMB_KOSHARA.avi
Format : AVI
Format/Info : Audio Video Interleave
File size : 1.37 GiB
Duration : 1h 28mn
Overall bit rate : 2 214 Kbps
Writing application : VirtualDubMod 1.5.10.2 (build 2540/release)
Writing library : VirtualDubMod build 2540/release

Video
ID : 0
Format : MPEG-4 Visual
Format profile : Advanced Simple@L5
Format settings, BVOP : 2
Format settings, QPel : No
Format settings, GMC : No warppoints
Format settings, Matrix : Default (MPEG)
Codec ID : XVID
Codec ID/Hint : XviD
Duration : 1h 28mn
Bit rate : 1 820 Kbps
Width : 720 pixels
Height : 288 pixels
Display aspect ratio : 2.500
Frame rate : 25.000 fps
Color space : YUV
Chroma subsampling : 4:2:0
Bit depth : 8 bits
Scan type : Progressive
Compression mode : Lossy
Bits/(Pixel*Frame) : 0.351
Stream size : 1.12 GiB (82%)
Writing library : XviD 1.2.1 (UTC 2008-12-04)

Audio
ID : 1
Format : AC-3
Format/Info : Audio Coding 3
Mode extension : CM (complete main)
Format settings, Endianness : Big
Codec ID : 2000
Duration : 1h 28mn
Bit rate mode : Constant
Bit rate : 384 Kbps
Channel(s) : 2 channels
Channel positions : Front: L R
Sampling rate : 48.0 KHz
Bit depth : 16 bits
Compression mode : Lossy
Stream size : 243 MiB (17%)
Alignment : Split accross interleaves
Interleave, duration : 40 ms (1.00 video frame)
Interleave, preload duration : 500 ms

pb.wtf



Скачать Борстал через торрент http://i89.fastpic.ru/big/2017/0512/9b/27a7212465e3e3fec671f5835cfb1c9b.jpg Скачать фильм Борстал через торрент бесплантно в хорошем качестве Описание: Парню по имени Крис предстоит провести два года в суровой Борстальской тюрьме. Здесь он сталкивается с местными порядками, ... 7.8 10 8
Торрент: Зарегистрирован [2017-05-12 03:04] · скачан: 216 раз
Статус: T временная
Размер: 1.37 GB
Как cкачать? Как скачать Борстал через торрент | UTorrent

28-11-2019 20:33  

Отключить всю рекламу на сайте

12-05-2017 10:36 Борстал Скачать торрент  

Раздающему огромное спасибо! Но, я бы никогда не досмотрел этот фильм до конца, если бы только мне не было настолько не*?;я делать.pb.wtf



12-06-2017 17:34 Борстал Скачать торрент  

Один раз можно глянуть,фильм странноватый,но забавный,4 можно поставить,раздающему спсбо pb.wtf



    Дорогой пользователь! Огромная просьба, поблагодарите релизера, оцените раздачу и оставьте свои комментарий, если Вы скачали Борстал через торрент бесплатно! Внесите свою лепту в развитие PiratBit!
    Комментировать посты могут только пользователи прошедшие не сложную регистрацию
    Показать сообщения:    

    Борстал через торрент
    Скачать бесплатно Борстал
    Борстал скачать торрент
    Борстал смотреть онлайн
    Cкачать фильм Борстал бесплатно
    Борстал скачать торрент в хорошем качестве
    Борстал смотреть онлайн бесплатно в хорошем качестве


    Вы не можете начинать темы
    Вы не можете отвечать на сообщения
    Вы не можете редактировать свои сообщения
    Вы не можете удалять свои сообщения
    Вы не можете голосовать в опросах
    Вы не можете прикреплять файлы к сообщениям
    Вы можете скачивать файлы