Ссылка на приватное зеркало нашего сайта всего за 1$. Внимание количество ограничено!!!

2 сезон

iTunes

1 сезон

1

iTunes

iTunes

iTunes

1 сезон

RePack

30

ИГРА 18+

pack

ВАЖНО

!!Акция!!

Alien_RageХит недели

RePack

MK11
pack

Забери бонус

RePack

jed

!!Акция!!

Alien_Rage

RePack

fifa19

RePack

Assassins Creed: Odyssey

RePack

NEED FOR SPEED™ PAYBACK

4 сезон

9 сезон

Бесстыжие 9 сезон

Все сериалы

все сериалы на PB.wtf

RePack

FAR CRY 5
  

Заложница / Серия 1-4 из 4 (Александр Сухарев) [2017 г., Драма, Криминал, SATRip] pb.wtf

Заложница через торрент pb.wtf

Размер: 2.33 GB | Добавлен: 3 года 5 мес. назад | Торрент скачан:128 раз
Скачать  

13-05-2017 12:46 Заложница Скачать торрент  

Заложница / Серия 1-4 из 4
Год выпуска: 2017
Страна: Россия
Жанр: Драма, Криминал
Продолжительность: 4Х-00:44:45
Субтитры: нет

Режиссер: Александр Сухарев

В ролях: Марина Коняшкина, Юрий Батурин, Андрей Барило, Ирина Темичева, Сергей Алимпиев, Наталья Рожкова

Описание: Совсем не таких сюрпризов ожидала Инга от трехлетней годовщины их совместной жизни с Максом. После утренней ссоры все пошло наперекосяк. На работе выяснилось, что ей ищут замену - и Инга сгоряча уволилась, поведав напоследок всему руководству, что она о них думает. Позвонила Максу, сказала, что уезжает в командировку, а сама поехала домой, приготовила праздничный ужин и стала его ждать. И он пришел - поздно и с любовницей. Жизнь рухнула в одночасье, и Инга уезжает из города, чтобы прийти в себя, отсидеться на даче, успокоиться, понять, как жить дальше. Но и этим планам не суждено сбыться: обнаружив на чердаке раненого мужчину, Инга становится заложницей в собственном доме...

Качество: SATRip
Формат: AVI
Видео кодек: XviD
Аудио кодек: MP3
Видео: 720x400 (1.80:1), 25 fps, XviD build 50 ~1800 kbps avg, 0.25 bit/pixel
Аудио#1: 48 kHz, MPEG Layer 3, 2 ch, ~128.00 kbps avg



General
Complete name : H:\релизы.торрентфайл\Zalozhnica.SATRip.[www.riperam.org]\Zalozhnica.01.SATRip.[www.riperam.org].avi
Format : AVI
Format/Info : Audio Video Interleave
File size : 610 MiB
Duration : 44mn 2s
Overall bit rate : 1 938 Kbps
Writing application : VirtualDubMod 1.5.10.3 |
Writing library : VirtualDubMod build 2550/release

Video
ID : 0
Format : MPEG-4 Visual
Format profile : Advanced Simple@L5
Format settings, BVOP : 2
Format settings, QPel : No
Format settings, GMC : No warppoints
Format settings, Matrix : Default (H.263)
Codec ID : XVID
Codec ID/Hint : XviD
Duration : 44mn 2s
Bit rate : 1 800 Kbps
Width : 720 pixels
Height : 400 pixels
Display aspect ratio : 16:9
Frame rate : 25.000 fps
Color space : YUV
Chroma subsampling : 4:2:0
Bit depth : 8 bits
Scan type : Progressive
Compression mode : Lossy
Bits/(Pixel*Frame) : 0.250
Stream size : 567 MiB (93%)
Writing library : XviD 1.2.1 (UTC 2008-12-04)

Audio
ID : 1
Format : MPEG Audio
Format version : Version 1
Format profile : Layer 3
Mode : Joint stereo
Mode extension : MS Stereo
Codec ID : 55
Codec ID/Hint : MP3
Duration : 44mn 2s
Bit rate mode : Constant
Bit rate : 128 Kbps
Channel(s) : 2 channels
Sampling rate : 48.0 KHz
Compression mode : Lossy
Stream size : 40.3 MiB (7%)
Alignment : Aligned on interleaves
Interleave, duration : 40 ms (1.00 video frame)
Interleave, preload duration : 504 ms
Writing library : LAME3.99r
Encoding settings : -m j -V 4 -q 9 -lowpass 17 -b 128

pb.wtf



Скачать Заложница через торрент http://i91.fastpic.ru/big/2017/0513/ca/b12bd80c67c7c43a165f3055602749ca.jpg Скачать фильм Заложница через торрент бесплантно в хорошем качестве Описание: Совсем не таких сюрпризов ожидала Инга от трехлетней годовщины их совместной жизни с Максом. После утренней ссоры все пошло ... 10 10 4
Торрент: Зарегистрирован [2017-05-13 12:46] · скачан: 128 раз
Статус: √ проверено
Размер: 2.33 GB
Как cкачать? Как скачать Заложница через торрент | qTorrent

% Раздел Тема Автор DL S | L
Зарубежные сериалы [ 5.72 GB ] Заложница / Taken / Сезон: 1 / Серии: 1-4 из 13 [2017 WEB-DL 720p] MVO + Original SEVMASH Скачать
1 | 0
Наши сериалы [ 2.08 GB ] Заложница / Серии: 1-4 из 4 [2017 SATRip-AVC] aleksan55 Скачать
1 | 0

28-11-2019 20:33  

Отключить всю рекламу на сайте

    Дорогой пользователь! Огромная просьба, поблагодарите релизера, оцените раздачу и оставьте свои комментарий, если Вы скачали Заложница через торрент бесплатно! Внесите свою лепту в развитие PiratBit!
    Комментировать посты могут только пользователи прошедшие не сложную регистрацию
    Показать сообщения:    

    Заложница через торрент
    Скачать бесплатно Заложница
    Заложница скачать торрент
    Заложница смотреть онлайн
    Cкачать фильм Заложница бесплатно
    Заложница скачать торрент в хорошем качестве
    Заложница смотреть онлайн бесплатно в хорошем качестве


    Вы не можете начинать темы
    Вы не можете отвечать на сообщения
    Вы не можете редактировать свои сообщения
    Вы не можете удалять свои сообщения
    Вы не можете голосовать в опросах
    Вы не можете прикреплять файлы к сообщениям
    Вы можете скачивать файлы