2 сезон

iTunes

MVO

1

2 сезон

iTunes

iTunes

1 сезон

RePack

30

Новинка

ВАЖНО

ИГРА 18+

pack

RePack

MK11
pack

Легкие деньги

RePack

jed

RePack

fifa19

RePack

RDR2

RePack

NEED FOR SPEED™ PAYBACK

4 сезон

9 сезон

Бесстыжие 9 сезон

Все сериалы

все сериалы на PB.wtf

RePack

FAR CRY 5

Anonymous, добрый вечер, мы не успеваем собрать деньги на оплату серверов за декабрь и январь, помогите нам пожалуйста в это трудное время. В качестве благодарности мы отключим Вам всю рекламу на сайте (укажите свой ник в строку Ваше имя)!

×
  
Magnet ссылка

Кредо убийцы в 3D / Assassin's Creed in 3D (Джастин Курзель) [2016 г., фантастика, фэнтези, боевик, приключения, BDRip 1080p, Дубляж Лицензия] Анаглиф (Дюбуа) pb.wtf

Кредо убийцы в 3D через торрент pb.wtf

Размер: 7.74 GB | Добавлен: 3 года 8 мес. назад | Торрент скачан:66 раз
Скачать  

13-05-2017 16:10 Кредо убийцы в 3D Скачать торрент  

Кредо убийцы в 3D / Assassin's Creed in 3D
Год выпуска: 2016
Страна: Великобритания, Франция, Гонконг, США
Жанр: фантастика, фэнтези, боевик, приключения
Продолжительность: 01:55:30
Перевод: Дубляж Лицензия
Субтитры: Русские, украинские, английские

Режиссер: Джастин Курзель

Бюджет: $125 000 000
Премьера в мире: 13 декабря 2016



В ролях: Майкл Фассбендер, Марион Котийяр, Джереми Айронс, Брендан Глисон, Шарлотта Рэмплинг, Майкл Кеннет Уильямс, Дени Меноше, Ариана Лабед, Халид Абдалла, Эсси Дэвис

Описание: Вот уже много столетий Орден Рыцарей Тамплиеров сеет разумное, доброе, вечное, пытаясь насадить мир во всем мире. Чтобы искоренить любое проявление насилия, тамплиерам нужно найти Яблоко Эдема, способное подавлять свободу воли и все инстинкты к сопротивлению. Последнее препятствие на пути к всеобщему счастью и процветанию - Братство Ассасинов, сражающееся за свободу и почти уничтоженное своим идеологическим противником. Именно ассасины давным-давно спрятали яблоко в надежном месте и выбросили карту. Чтобы отыскать заветную реликвию, орден использует Анимус - машину для считывания генетической памяти, через которую по очереди пропускают отловленных в охапку потомков неуловимых мстителей. Погружаясь в воспоминания своих предков и переносясь в далекое прошлое с полным эффектом присутствия, они демонстрируют чудеса эквилибристики, акробатики и жонглирования, приближая светлое будущее.

Доп. информация: Формат 3D: Анаглиф (Дюбуа)



Качество: BDRip 1080p
Формат: MKV
Видео кодек: H.264
Аудио кодек: AC3
Видео: AVC, 1920x1080 (16:9), 7868 kbps, 23,976 fps, 0.158 bpp
Аудио#1: Русский / AC3 / 48 KHz / 5.1 ch / 640 Kbps (Дубляж - BD 3D Eur)
Аудио#2: Украинский / AC3 / 48 KHz / 5.1 ch / 448 Kbps (Дубляж - BD 3D Eur)
Аудио#3: Английский / AC3 / 48 KHz / 5.1 ch / 640 Kbps (Original - BD 3D Eur)


скриншот   скриншот   скриншот   скриншот   скриншот  
x264 [info]: frame I:1609 Avg QP: 8.24 size:175828
x264 [info]: frame P:46047 Avg QP:11.04 size: 67851
x264 [info]: frame B:118523 Avg QP:12.72 size: 28476
x264 [info]: consecutive B-frames: 4.5% 4.9% 12.4% 39.8% 38.5%


Общее
Уникальный идентификатор : 228611354890100776893346275254931898753 (0xABFCF205CC6B28CF832F19982D8D4181)
Полное имя : E:\Assassin'sCreed(2016)3D.BDRip.1080p.(Anaglyph_Dubois).mkv
Формат : Matroska
Версия формата : Version 4 / Version 2
Размер файла : 7,74 Гбайт
Продолжительность : 1 ч. 55 м.
Общий поток : 9598 Кбит/сек
Название фильма : Кредо убийцы / Assassin's Creed (2016) BDRip 1080p | 3D-Video (Anaglyph_Dubois)
Дата кодирования : UTC 2017-05-13 15:13:13
Программа кодирования : mkvmerge v9.1.0 ('Little Earthquakes') 64bit
Библиотека кодирования : libebml v1.3.3 + libmatroska v1.4.4

Видео
Идентификатор : 1
Формат : AVC
Формат/Информация : Advanced Video Codec
Профиль формата : High@L4.1
MultiView_Count : 2
MultiView_Layout : Anaglyph (cyan/red)
Параметр CABAC формата : Да
Параметр ReFrames формата : 4 кадра
Идентификатор кодека : V_MPEG4/ISO/AVC
Продолжительность : 1 ч. 55 м.
Битрейт : 7868 Кбит/сек
Ширина : 1920 пикселей
Высота : 1080 пикселей
Соотношение сторон : 16:9
Режим частоты кадров : Постоянный
Частота кадров : 23,976 кадра/сек
Цветовое пространство : YUV
Субдискретизация насыщенности : 4:2:0
Битовая глубина : 8 бит
Тип развёртки : Прогрессивная
Бит/(Пиксели*Кадры) : 0.158
Размер потока : 6,35 Гбайт (82%)
Заголовок : slaventi-69 ( R.G. HD-Films ) 3Д (Anaglyph_Dubois)
Библиотека кодирования : x264 core 146 r2538 121396c
Настройки программы : cabac=1 / ref=4 / deblock=1:-1:-1 / analyse=0x3:0x113 / me=umh / subme=9 / psy=1 / psy_rd=1.00:0.00 / mixed_ref=1 / me_range=24 / chroma_me=1 / trellis=2 / 8x8dct=1 / cqm=0 / deadzone=21,11 / fast_pskip=1 / chroma_qp_offset=-2 / threads=8 / lookahead_threads=1 / sliced_threads=0 / nr=0 / decimate=0 / interlaced=0 / bluray_compat=0 / constrained_intra=0 / bframes=4 / b_pyramid=2 / b_adapt=2 / b_bias=0 / direct=3 / weightb=1 / open_gop=0 / weightp=2 / keyint=250 / keyint_min=23 / scenecut=40 / intra_refresh=0 / rc_lookahead=50 / rc=2pass / mbtree=1 / bitrate=7868 / ratetol=1.0 / qcomp=0.60 / qpmin=0 / qpmax=69 / qpstep=4 / cplxblur=20.0 / qblur=0.5 / vbv_maxrate=14000 / vbv_bufsize=14000 / nal_hrd=none / filler=0 / ip_ratio=1.40 / aq=1:1.00
Язык : English
Default : Да
Forced : Нет

Аудио #1
Идентификатор : 2
Формат : AC-3
Формат/Информация : Audio Coding 3
Расширение режима : CM (complete main)
Параметр Endianness формата : Big
Идентификатор кодека : A_AC3
Продолжительность : 1 ч. 55 м.
Вид битрейта : Постоянный
Битрейт : 640 Кбит/сек
Каналы : 6 каналов
Расположение каналов : Front: L C R, Side: L R, LFE
Частота : 48,0 КГц
Частота кадров : 31,250 кадров/сек (1536 spf)
Метод сжатия : С потерями
Размер потока : 529 Мбайт (7%)
Заголовок : Дубляж - BD 3D Eur
Язык : Russian
Default : Да
Forced : Нет

Аудио #2
Идентификатор : 3
Формат : AC-3
Формат/Информация : Audio Coding 3
Расширение режима : CM (complete main)
Параметр Endianness формата : Big
Идентификатор кодека : A_AC3
Продолжительность : 1 ч. 55 м.
Вид битрейта : Постоянный
Битрейт : 448 Кбит/сек
Каналы : 6 каналов
Расположение каналов : Front: L C R, Side: L R, LFE
Частота : 48,0 КГц
Частота кадров : 31,250 кадров/сек (1536 spf)
Метод сжатия : С потерями
Размер потока : 370 Мбайт (5%)
Заголовок : Дубляж - BD 3D Eur
Язык : Ukrainian
Default : Нет
Forced : Нет

Аудио #3
Идентификатор : 4
Формат : AC-3
Формат/Информация : Audio Coding 3
Расширение режима : CM (complete main)
Параметр Endianness формата : Big
Идентификатор кодека : A_AC3
Продолжительность : 1 ч. 55 м.
Вид битрейта : Постоянный
Битрейт : 640 Кбит/сек
Каналы : 6 каналов
Расположение каналов : Front: L C R, Side: L R, LFE
Частота : 48,0 КГц
Частота кадров : 31,250 кадров/сек (1536 spf)
Метод сжатия : С потерями
Размер потока : 529 Мбайт (7%)
Заголовок : Original - BD 3D Eur
Язык : English
Default : Нет
Forced : Нет

Текст #1
Идентификатор : 5
Формат : UTF-8
Идентификатор кодека : S_TEXT/UTF8
Идентификатор кодека/Информация : UTF-8 Plain Text
Продолжительность : 1 ч. 31 м.
Битрейт : 8 бит/сек
Count of elements : 122
Размер потока : 5,82 Кбайт (0%)
Заголовок : Форсированные
Язык : Russian
Default : Да
Forced : Нет

Текст #2
Идентификатор : 6
Формат : UTF-8
Идентификатор кодека : S_TEXT/UTF8
Идентификатор кодека/Информация : UTF-8 Plain Text
Продолжительность : 1 ч. 38 м.
Битрейт : 43 бит/сек
Count of elements : 679
Размер потока : 31,2 Кбайт (0%)
Заголовок : Полные
Язык : Russian
Default : Нет
Forced : Нет

Текст #3
Идентификатор : 7
Формат : UTF-8
Идентификатор кодека : S_TEXT/UTF8
Идентификатор кодека/Информация : UTF-8 Plain Text
Продолжительность : 1 ч. 31 м.
Битрейт : 8 бит/сек
Count of elements : 116
Размер потока : 5,79 Кбайт (0%)
Заголовок : Форсированные
Язык : Ukrainian
Default : Нет
Forced : Нет

Текст #4
Идентификатор : 8
Формат : UTF-8
Идентификатор кодека : S_TEXT/UTF8
Идентификатор кодека/Информация : UTF-8 Plain Text
Продолжительность : 1 ч. 54 м.
Битрейт : 37 бит/сек
Count of elements : 676
Размер потока : 31,7 Кбайт (0%)
Заголовок : Полные
Язык : Ukrainian
Default : Нет
Forced : Нет

Текст #5
Идентификатор : 9
Формат : UTF-8
Идентификатор кодека : S_TEXT/UTF8
Идентификатор кодека/Информация : UTF-8 Plain Text
Продолжительность : 1 ч. 18 м.
Битрейт : 4 бит/сек
Count of elements : 99
Размер потока : 2,76 Кбайт (0%)
Заголовок : Forced
Язык : English
Default : Нет
Forced : Нет

Текст #6
Идентификатор : 10
Формат : UTF-8
Идентификатор кодека : S_TEXT/UTF8
Идентификатор кодека/Информация : UTF-8 Plain Text
Продолжительность : 1 ч. 42 м.
Битрейт : 26 бит/сек
Count of elements : 729
Размер потока : 19,5 Кбайт (0%)
Заголовок : Full
Язык : English
Default : Нет
Forced : Нет

Текст #7
Идентификатор : 11
Формат : UTF-8
Идентификатор кодека : S_TEXT/UTF8
Идентификатор кодека/Информация : UTF-8 Plain Text
Продолжительность : 1 ч. 42 м.
Битрейт : 29 бит/сек
Count of elements : 884
Размер потока : 22,3 Кбайт (0%)
Заголовок : SDH
Язык : English
Default : Нет
Forced : Нет

Меню
00:00:00.000 : :1
00:06:04.155 : :2
00:09:32.697 : :3
00:12:47.517 : :4
00:16:47.715 : :5
00:21:07.433 : :6
00:26:56.448 : :7
00:31:55.080 : :8
00:38:06.284 : :9
00:41:43.167 : :10
00:46:33.040 : :11
00:50:10.257 : :12
00:53:04.390 : :13
00:56:17.624 : :14
00:59:26.480 : :15
01:02:32.582 : :16
01:06:37.035 : :17
01:13:08.759 : :18
01:18:45.888 : :19
01:23:01.101 : :20
01:30:17.996 : :21
01:34:18.194 : :22
01:37:45.193 : :23
01:40:51.003 : :24

pb.wtf



Скачать Кредо убийцы в 3D через торрент http://i91.fastpic.ru/big/2017/0316/11/111b4e258935598a527f64c118f46511.png Скачать фильм Кредо убийцы в 3D через торрент бесплантно в хорошем качестве Описание: Вот уже много столетий Орден Рыцарей Тамплиеров сеет разумное, доброе, вечное, пытаясь насадить мир во всем мире. Чтобы ... 10 10 2
Торрент: Зарегистрирован [2017-05-13 16:10] · скачан: 66 раз
Статус: √ проверено
Размер: 7.74 GB
Как cкачать? Как скачать Кредо убийцы в 3D через торрент | UTorrent

28-11-2019 20:33  

Отключить всю рекламу на сайте

    Дорогой пользователь! Огромная просьба, поблагодарите релизера, оцените раздачу и оставьте свои комментарий, если Вы скачали Кредо убийцы в 3D через торрент бесплатно! Внесите свою лепту в развитие PiratBit!
    Комментировать посты могут только пользователи прошедшие не сложную регистрацию
    Показать сообщения:    

    Кредо убийцы в 3D через торрент
    Скачать бесплатно Кредо убийцы в 3D
    Кредо убийцы в 3D скачать торрент
    Кредо убийцы в 3D смотреть онлайн
    Cкачать фильм Кредо убийцы в 3D бесплатно
    Кредо убийцы в 3D скачать торрент в хорошем качестве
    Кредо убийцы в 3D смотреть онлайн бесплатно в хорошем качестве


    Вы не можете начинать темы
    Вы не можете отвечать на сообщения
    Вы не можете редактировать свои сообщения
    Вы не можете удалять свои сообщения
    Вы не можете голосовать в опросах
    Вы не можете прикреплять файлы к сообщениям
    Вы можете скачивать файлы