Ссылка на приватное зеркало нашего сайта всего за 1$. Внимание количество ограничено!!!

2 сезон

iTunes

1 сезон

1

iTunes

iTunes

iTunes

1 сезон

RePack

30

ИГРА 18+

pack

ВАЖНО

!!Акция!!

Alien_RageХит недели

RePack

MK11
pack

Забери бонус

RePack

jed

!!Акция!!

Alien_Rage

RePack

fifa19

RePack

Assassins Creed: Odyssey

RePack

NEED FOR SPEED™ PAYBACK

4 сезон

9 сезон

Бесстыжие 9 сезон

Все сериалы

все сериалы на PB.wtf

RePack

FAR CRY 5
  

Отель Элеон / Сезон: 2 / Серии 1-21 из 21 (Антон Федотов, Антон Маслов, Екатерина Забулонская) [2017, Россия, Украина, комедия, WEB-DLRip 720p] pb.wtf

Отель Элеон через торрент pb.wtf

Размер: 13.37 GB | Добавлен: 3 года 4 мес. назад | Торрент скачан:378 раз
Скачать  

14-05-2017 00:25 Отель Элеон Скачать торрент  

Отель Элеон


  • Год выпуска: 2017
  • Страна: Россия, Украина
  • Жанр: комедия
  • Продолжительность: 00:25:09 (Серия)
  • Перевод: Не требуется [Русский]
  • Режиссер: Антон Федотов, Антон Маслов, Екатерина Забулонская
  • В ролях:

    Милош Бикович (Павел), Диана Пожарская (Даша Канаева), Екатерина Вилкова (София Толстая), Елена Ксенофонтова (Элеонора Андреевна), Григорий Сиятвинда (Михаил Джекович), Сергей Лавыгин (Сеня), Ольга Кузьмина (Настя), Виктор Хориняк (Костя), Сергей Ларин (гость, помощник бандитов), Олег Гаас (Юрий, второй бармен), Иван Кравченко (бармен Александр), Анна Чернович (Диана Морозова, горничная)


  • Героев ждут неожиданные перемены, вкусные сюрпризы, интригующие преображения, опасные трюки и настоящие дуэли. А главное – в роскошный отель вернутся француз-кондитер Луи (Никита Тарасов), спец по молекулярной кухне Катя (Валерия Федорович) и главный эксперт по уборке Айнура (Жаныл Асанбекова).В пятизвездочном отеле остановятся лунатик, мышь и даже художница, рисующая картины с помощью бюста. Среди гостей «Элеона» замечены и звездные постояльцы.
  • Рейтинг:



  • Качество: WEB-DLRip 720p
  • Формат: :MKV
  • Видео кодек: AVC
  • Аудио кодек: AC3
  • Видео: 1280x720 (16:9), 3500 kbps, 50 fps, 0,076 bpp
  • Аудио: русский / 2.0 / 48 kHz / 192 kbps
  • Релиз от: 25Kuzmich

    Внимание! Раздача ведётся путём добавления новых серий; при каждом добавлении создаётся новый торрент. Чтобы начать докачку новой серии, пользователям необходимо сделать следующее:
    (1) остановить скачивание,
    (2) удалить старый торрент у себя из клиента (старые серии удалять не надо),
    (3) скачать новый торрент и запустить его у себя в клиенте вместо старого, при этом указать клиенту путь в старую папку куда и должно происходить скачивание новых серий.
    Ваш клиент при этом должен произвести хеширование (проверку) старой папки (если не производит сам - помогите ему сделать это), и будет докачивать только те серии которых у вас ещё нет. Старые серии при этом не удаляются, а продолжают раздаваться!
    Eсли вы уже удалили старые серии, то предотвратить повторную закачку старых серий можно, отжав галочку в соответствующих местах при запуске нового торрента. По возможности, желательно не удалять старые серии как можно дольше чтобы релизёр не столько продолжал раздавать старые серии, а смог сконцентрироваться на новых.

    General
    Unique ID : 250783088133569475331970680543828388880 (0xBCAB10DEB4E9ECAA89A2E2C8AF722C10)
    Complete name : H:\Otel.eleon.S02.WEB-DL.(720p).BigFANgroup\Otel.eleon.s02s02.WEB-DL.(720p).BigFANgroup.mkv
    Format : Matroska
    Format version : Version 4 / Version 2
    File size : 668 MiB
    Duration : 25 min
    Overall bit rate mode : Variable
    Overall bit rate : 3 712 kb/s
    Encoded date : UTC 2017-05-13 05:47:57
    Writing application : mkvmerge v9.4.0 ('Knurl') 32bit
    Writing library : libebml v1.3.4 + libmatroska v1.4.5

    Video
    ID : 1
    Format : AVC
    Format/Info : Advanced Video Codec
    Format profile : High@L4.1
    Format settings, CABAC : Yes
    Format settings, ReFrames : 5 frames
    Codec ID : V_MPEG4/ISO/AVC
    Duration : 25 min
    Bit rate mode : Variable
    Bit rate : 3 500 kb/s
    Maximum bit rate : 40.0 Mb/s
    Width : 1 280 pixels
    Height : 720 pixels
    Display aspect ratio : 16:9
    Frame rate mode : Constant
    Frame rate : 50.000 FPS
    Color space : YUV
    Chroma subsampling : 4:2:0
    Bit depth : 8 bits
    Scan type : Progressive
    Bits/(Pixel*Frame) : 0.076
    Stream size : 633 MiB (95%)
    Writing library : x264 core 148
    Encoding settings : cabac=1 / ref=5 / deblock=1:0:0 / analyse=0x3:0x113 / me=hex / subme=8 / psy=1 / psy_rd=1.00:0.00 / mixed_ref=1 / me_range=16 / chroma_me=1 / trellis=2 / 8x8dct=1 / cqm=0 / deadzone=21,11 / fast_pskip=1 / chroma_qp_offset=-2 / threads=1 / lookahead_threads=1 / sliced_threads=0 / nr=0 / decimate=1 / interlaced=0 / bluray_compat=0 / constrained_intra=0 / bframes=3 / b_pyramid=2 / b_adapt=1 / b_bias=0 / direct=3 / weightb=1 / open_gop=0 / weightp=2 / keyint=250 / keyint_min=25 / scenecut=0 / intra_refresh=0 / rc_lookahead=50 / rc=abr / mbtree=1 / bitrate=3500 / ratetol=1.0 / qcomp=0.60 / qpmin=0 / qpmax=69 / qpstep=4 / ip_ratio=1.40 / aq=1:1.0
    Default : Yes
    Forced : No

    Audio
    ID : 2
    Format : AC-3
    Format/Info : Audio Coding 3
    Mode extension : CM (complete main)
    Format settings, Endianness : Big
    Codec ID : A_AC3
    Duration : 25 min
    Bit rate mode : Constant
    Bit rate : 192 kb/s
    Channel(s) : 2 channels
    Channel positions : Front: L R
    Sampling rate : 48.0 kHz
    Frame rate : 31.250 FPS (1536 spf)
    Compression mode : Lossy
    Stream size : 34.6 MiB (5%)
    Language : Russian
    Default : Yes
    Forced : No



    Скриншоты:
    скриншот   скриншот   скриншот   скриншот   скриншот   скриншот   скриншот  
    скриншот  

    Раздача ведётся путём добавления новых серий. Добавлена 21 серия (15.06.2017).Просьба перекачать торрент файл.

    pb.wtf



  • Скачать Отель Элеон через торрент http://i46.fastpic.ru/big/2017/0514/75/171c06626d549e4cab43d9dc4e68e175.jpg Скачать фильм Отель Элеон через торрент бесплантно в хорошем качестве qw.png Героев ждут неожиданные перемены, вкусные сюрпризы, интригующие преображения, опасные трюки и настоящие дуэли. А главное – в ... 9.5 10 21
    Info! Золотая раздача, скачанное не засчитывается.
    Торрент: Зарегистрирован [2017-06-15 01:00] · скачан: 378 раз
    Статус: √ проверено
    Размер: 13.37 GB
    Как cкачать? Как скачать Отель Элеон через торрент | qTorrent

    % Раздел Тема Автор DL S | L
    Наши сериалы [ 6.74 GB ] Отель Элеон / Сезон: 2 / Серии 1-21 из 21 [2017 Россия Украина WEB-DLRip] GEKADOL Скачать
    1 | 0


    Последний раз редактировалось: GEKADOL (2017-06-15 01:08), всего редактировалось 26 раз(а)

    28-11-2019 20:33  

    Отключить всю рекламу на сайте

    15-05-2017 15:41 Отель Элеон Скачать торрент  

    Ура-а-а-а!!! pb.wtf



    16-05-2017 14:50 Отель Элеон Скачать торрент  

    pb.wtf



    26-05-2017 10:02 Отель Элеон Скачать торрент  

    классный сериал! pb.wtf



    31-05-2017 10:14 Отель Элеон Скачать торрент  

    обожаю этот серьялpb.wtf



    04-06-2017 15:14 Отель Элеон Скачать торрент  

    как серьял:?!!pb.wtf



      Дорогой пользователь! Огромная просьба, поблагодарите релизера, оцените раздачу и оставьте свои комментарий, если Вы скачали Отель Элеон через торрент бесплатно! Внесите свою лепту в развитие PiratBit!
      Комментировать посты могут только пользователи прошедшие не сложную регистрацию
      Показать сообщения:    

      Отель Элеон через торрент
      Скачать бесплатно Отель Элеон
      Отель Элеон скачать торрент
      Отель Элеон смотреть онлайн
      Cкачать фильм Отель Элеон бесплатно
      Отель Элеон скачать торрент в хорошем качестве
      Отель Элеон смотреть онлайн бесплатно в хорошем качестве


      Вы не можете начинать темы
      Вы не можете отвечать на сообщения
      Вы не можете редактировать свои сообщения
      Вы не можете удалять свои сообщения
      Вы не можете голосовать в опросах
      Вы не можете прикреплять файлы к сообщениям
      Вы можете скачивать файлы