2 сезон

iTunes

MVO

1

2 сезон

iTunes

iTunes

1 сезон

RePack

30

Ultimate

ВАЖНО

ИГРА 18+

pack

RePack

MK11
pack

Легкие деньги

RePack

jed

RePack

fifa19

RePack

RDR2

RePack

NEED FOR SPEED™ PAYBACK

4 сезон

9 сезон

Бесстыжие 9 сезон

Все сериалы

все сериалы на PB.wtf

RePack

FAR CRY 5

Anonymous, доброй ночи, мы не успеваем собрать деньги на оплату серверов за декабрь и январь, помогите нам пожалуйста в это трудное время. В качестве благодарности мы отключим Вам всю рекламу на сайте (укажите свой ник в строку Ваше имя)!

×
  
Magnet ссылка

Прочь / Get Out (Джордан Пил) [2017, ужасы, триллер, детектив, HDRip-AVC] MVO [AlexFilm] - ExKinoRay pb.wtf

Прочь через торрент pb.wtf

Размер: 1.45 GB | Добавлен: 3 года 8 мес. назад | Торрент скачан:1290 раз
Скачать  

14-05-2017 03:16 Прочь Скачать торрент  

Информация о фильме
Название: Прочь
Оригинальное название: Get Out
Год выпуска: 2017
Жанр: Ужасы, детектив
Страна: США
Студия: Blumhouse Productions, QC Entertainment
Продолжительность: 01:44:05
Перевод: Профессиональный многоголосый | AlexFilm
Субтитры: Русские, английские
Режиссер: Джордан Пил
В ролях: Дэниэл Калуя, Эллисон Уильямс, Кэтрин Кинер, Брэдли Уитфорд, Калеб Лэндри Джонс, Маркус Хендерсон, Бетти Гэбриел, Лейкит Стэнфилд, Стивен Рут, Лил Релл

Описание:
Фильм расскажет о молодом американском фотографе Крисе Вашингтоне, который знакомится с родителями своей девушки, которые принадлежат к элите и живут в загородном доме. Если бы Крис знал, для чего они его решили пригласить, он бы тут же бросился ПРОЧЬ.


rating

Файл
Формат: MKV
Качество: HDRip-AVC
Видео: MPEG-4 AVC, 720x300 (2.40:1), ~ 1542 kbps avg, 23.976 FPS, 0.298 bit/pixel
Аудио: AC-3, 48.0 KHz, 5.1 ch, 448 Kbps, CBR (Russian)
General
Unique ID : 236828720983424622537344411869249334833 (0xB22B8D737A23420E8D411BBFBC8CEE31)
Complete name : D:\Get.Out.2017.MVO.HDRip.AVC.ExKinoRay.mkv
Format : Matroska
Format version : Version 2
File size : 1.45 GiB
Duration : 1 h 44 min
Overall bit rate : 1 988 kb/s
Movie name : Get Out (2017) from ExKinoRay
Encoded date : UTC 2017-05-14 01:27:00
Writing application : mkvmerge v5.8.0 ('No Sleep / Pillow') built on Sep 2 2012 15:37:04
Writing library : libebml v1.2.3 + libmatroska v1.3.0

Video
ID : 1
Format : AVC
Format/Info : Advanced Video Codec
Format profile : High@L4.1
Format settings, CABAC : Yes
Format settings, ReFrames : 10 frames
Codec ID : V_MPEG4/ISO/AVC
Duration : 1 h 44 min
Bit rate : 1 542 kb/s
Width : 720 pixels
Height : 300 pixels
Display aspect ratio : 2.40:1
Frame rate mode : Constant
Frame rate : 23.976 (24000/1001) FPS
Color space : YUV
Chroma subsampling : 4:2:0
Bit depth : 8 bits
Scan type : Progressive
Bits/(Pixel*Frame) : 0.298
Stream size : 1.09 GiB (75%)
Title : Enigma
Writing library : x264 core 144 r2525 40bb568
Encoding settings : cabac=1 / ref=10 / deblock=1:-2:-2 / analyse=0x3:0x113 / me=umh / subme=10 / psy=1 / psy_rd=1.00:0.05 / mixed_ref=1 / me_range=32 / chroma_me=1 / trellis=2 / 8x8dct=1 / cqm=0 / deadzone=21,11 / fast_pskip=1 / chroma_qp_offset=-3 / threads=12 / lookahead_threads=2 / sliced_threads=0 / nr=0 / decimate=0 / interlaced=0 / bluray_compat=0 / constrained_intra=0 / bframes=10 / b_pyramid=2 / b_adapt=2 / b_bias=0 / direct=3 / weightb=1 / open_gop=0 / weightp=2 / keyint=240 / keyint_min=23 / scenecut=40 / intra_refresh=0 / rc_lookahead=40 / rc=2pass / mbtree=0 / bitrate=1542 / ratetol=1.0 / qcomp=0.60 / qpmin=0 / qpmax=51 / qpstep=4 / cplxblur=20.0 / qblur=0.5 / vbv_maxrate=50000 / vbv_bufsize=62500 / nal_hrd=none / filler=0 / ip_ratio=1.40 / pb_ratio=1.30 / aq=1:1.00
Default : Yes
Forced : No
Color range : Limited
Color primaries : BT.709
Transfer characteristics : BT.709
Matrix coefficients : BT.709

Audio
ID : 2
Format : AC-3
Format/Info : Audio Coding 3
Mode extension : CM (complete main)
Format settings, Endianness : Big
Codec ID : A_AC3
Duration : 1 h 44 min
Bit rate mode : Constant
Bit rate : 448 kb/s
Channel(s) : 6 channels
Channel positions : Front: L C R, Side: L R, LFE
Sampling rate : 48.0 kHz
Frame rate : 31.250 FPS (1536 spf)
Compression mode : Lossy
Stream size : 334 MiB (23%)
Title : MVO (Alexfilm)
Language : Russian
Default : Yes
Forced : No

Text #1
ID : 3
Format : UTF-8
Codec ID : S_TEXT/UTF8
Codec ID/Info : UTF-8 Plain Text
Title : Full
Language : Russian
Default : No
Forced : No

Text #2
ID : 4
Format : UTF-8
Codec ID : S_TEXT/UTF8
Codec ID/Info : UTF-8 Plain Text
Language : English
Default : No
Forced : No

Menu
00:00:00.000 : en:00:00:00.000
00:04:52.834 : en:00:04:52.834
00:10:13.530 : en:00:10:13.530
00:14:02.258 : en:00:14:02.258
00:19:07.480 : en:00:19:07.480
00:21:49.433 : en:00:21:49.433
00:26:07.357 : en:00:26:07.357
00:30:51.016 : en:00:30:51.016
00:37:19.487 : en:00:37:19.487
00:42:16.868 : en:00:42:16.868
00:48:03.172 : en:00:48:03.172
00:54:13.584 : en:00:54:13.584
00:57:38.288 : en:00:57:38.288
01:03:33.810 : en:01:03:33.810
01:10:48.911 : en:01:10:48.911
01:15:36.365 : en:01:15:36.365
01:22:02.543 : en:01:22:02.543
01:26:13.418 : en:01:26:13.418
01:32:24.414 : en:01:32:24.414
01:40:22.391 : en:01:40:22.391
Релиз от:

Автор релиза: pb.wtf



Скачать Прочь через торрент http://s018.radikal.ru/i526/1705/41/87caf993cb74.jpg Скачать фильм Прочь через торрент бесплантно в хорошем качестве Описание: Фильм расскажет о молодом американском фотографе Крисе Вашингтоне, который знакомится с родителями своей девушки, которые ... 9.4 10 18
Info! Золотая раздача, скачанное не засчитывается.
Торрент: Зарегистрирован [2017-05-14 03:16] · скачан: 1 290 раз
Статус: √ проверено
Размер: 1.45 GB
Как cкачать? Как скачать Прочь через торрент | UTorrent

28-11-2019 20:33  

Отключить всю рекламу на сайте

14-05-2017 18:40 Прочь Скачать торрент  

Не так уж плохо как показалось по трейлеру, глянуть можно и даже нужно, фильмец затягивает своим прикольным сюжетом, страшилка тут только в актере главного героя, мракобес тот еще, раздражает нереально pb.wtf



15-05-2017 06:46 Прочь Скачать торрент  

Да ерунда на самом деле,но негры будут в шоке.pb.wtf



18-05-2017 10:39 Прочь Скачать торрент  

Интересный фильмpb.wtf



    Дорогой пользователь! Огромная просьба, поблагодарите релизера, оцените раздачу и оставьте свои комментарий, если Вы скачали Прочь через торрент бесплатно! Внесите свою лепту в развитие PiratBit!
    Комментировать посты могут только пользователи прошедшие не сложную регистрацию
    Показать сообщения:    

    Прочь через торрент
    Скачать бесплатно Прочь
    Прочь скачать торрент
    Прочь смотреть онлайн
    Cкачать фильм Прочь бесплатно
    Прочь скачать торрент в хорошем качестве
    Прочь смотреть онлайн бесплатно в хорошем качестве


    Вы не можете начинать темы
    Вы не можете отвечать на сообщения
    Вы не можете редактировать свои сообщения
    Вы не можете удалять свои сообщения
    Вы не можете голосовать в опросах
    Вы не можете прикреплять файлы к сообщениям
    Вы можете скачивать файлы