Ссылка на приватное зеркало всего за 1$. Внимание количество ограничено!!!

iTunes

iTunes

iTunes

1

iTunes

iTunes

iTunes

iTunes

iTunes

30
pack

$ от Little Big

ВАЖНО

!!Акция!!

Alien_RageХит недели

RePack

Resident Evil 21

ИГРА 18+

pack

RePack

jed

!!Акция!!

Alien_Rage

RePack

fifa19

RePack

Assassins Creed: Odyssey

RePack

NEED FOR SPEED™ PAYBACK

4 сезон

9 сезон

Бесстыжие 9 сезон

Все сериалы

все сериалы на PB.wtf

RePack

FAR CRY 5
  

Тугой узел (Михаил Швейцер) [1956, СССР, драма, SATRip от AVP Studio] pb.wtf

Тугой узел через торрент pb.wtf

Размер: 1.09 GB | Добавлен: 3 года назад | Торрент скачан:4 раза
Скачать  

15-05-2017 08:49 Тугой узел Скачать торрент  

Тугой узел
Страна: СССР
Производство: Мосфильм

Жанр: драма
Год выпуска: 1956
Продолжительность: 01:31:37

Перевод: Не требуется
Cубтитры: нет
Оригинальная аудиодорожка: русский

Режиссер: Михаил Швейцер

В ролях:
Виктор Авдюшко, Николай Сергеев, Олег Табаков, Павел Волков, Валентина Пугачёва, Валентина Березуцкая, Владимир Емельянов, Петр Кирюткин, Светлана Коновалова, Анатолий Дудоров, Николай Хрящиков, Григорий Михайлов...
Об актёрах подробней

Описание:
По повести Владимира Тендрякова «Тугой узел».
Председатель колхоза Гмызин как может помогает Саше Комелеву, сыну недавно умершего секретаря райкома партии. Юноша поступает на заочное отделение института и начинает работать в колхозе. Появляется у него и любимая - черноглазая Катя…
Новый секретарь райкома Мансуров сначала зажигает всех своей энергией, стремлением вывести район в передовые. Но вскоре многие осознают, что руководствуется он не уважением к людям, а лишь собственным честолюбием.

Источник: DVB
Качество видео: SATRip
Формат видео: AVI

Видео: 688x512 (4:3), 25 fps, XviD ~ 1502 kbps avg, 0.171 bit/pixel
Аудио: 48 kHz, Dolby Digital AC3 2.0, 192 kbps

Раздача от:
Общее
Полное имя : Tugoy.uzel.1957.SATRip_[New-team]_by_AVP_Studio.avi
Формат : AVI
Формат/Информация : Audio Video Interleave
Размер файла : 1,09 Гбайт
Продолжительность : 1 ч. 31 м.
Общий поток : 1704 Кбит/сек
Программа кодирования : VirtualDubMod 1.5.10.3 | www.virtualdub-fr.org || (build 2550/release)
Библиотека кодирования : VirtualDubMod build 2550/release

Видео
Идентификатор : 0
Формат : MPEG-4 Visual
Профиль формата : Advanced Simple@L5
Параметр BVOP формата : 1
Параметр QPel формата : Нет
Параметр GMC формата : Без точки перехода
Параметр матрицы формата : Выборочная
Идентификатор кодека : XVID
Идентификатор кодека/Подсказка : XviD
Продолжительность : 1 ч. 31 м.
Битрейт : 1502 Кбит/сек
Ширина : 688 пикселей
Высота : 512 пикселей
Соотношение сторон : 4:3
Частота кадров : 25,000 кадров/сек
Цветовое пространство : YUV
Субдискретизация насыщенности : 4:2:0
Битовая глубина : 8 бит
Тип развёртки : Прогрессивная
Метод сжатия : С потерями
Бит/(Пиксели*Кадры) : 0.171
Размер потока : 984 Мбайт (88%)
Библиотека кодирования : XviD 73

Аудио
Идентификатор : 1
Формат : AC-3
Формат/Информация : Audio Coding 3
Параметр Endianness формата : Big
Идентификатор кодека : 2000
Продолжительность : 1 ч. 31 м.
Вид битрейта : Постоянный
Битрейт : 192 Кбит/сек
Каналы : 2 канала
Расположение каналов : Front: L R
Частота : 48,0 КГц
Частота кадров : 31,250 кадров/сек (1536 spf)
Битовая глубина : 16 бит
Метод сжатия : С потерями
Размер потока : 126 Мбайт (11%)
Выравнивание : Разделение по промежуткам
Продолжительность промежутка : 40 мс. (1,00 видеокадр)
Время предзагрузки промежутка : 500 мс
pb.wtf



Скачать Тугой узел через торрент http://s012.radikal.ru/i320/1705/9e/0ceabfe74545.png Скачать фильм Тугой узел через торрент бесплантно в хорошем качестве Описание:По повести Владимира Тендрякова «Тугой узел».Председатель колхоза Гмызин как может помогает Саше Комелеву, сыну недавно умершего ... 10 10 1
Info! Золотая раздача, скачанное не засчитывается.
Торрент: Зарегистрирован [2017-05-15 08:49] · скачан: 4 раз
Статус: √ проверено
Размер: 1.09 GB
Как cкачать? Как скачать Тугой узел через торрент | qTorrent

% Раздел Тема Автор DL S | L
Кино СССР [ 1.09 GB ] Тугой узел [1956 СССР SATRip-AVC от AVP Studio] AVP Studio Скачать
1 | 0
Кино СССР [ 745 MB ] Тугой узел [1956 СССР SATRip от AVP Studio] AVP Studio Скачать
1 | 0

28-11-2019 20:33  

Отключить всю рекламу на сайте

    Дорогой пользователь! Огромная просьба, поблагодарите релизера, оцените раздачу и оставьте свои комментарий, если Вы скачали Тугой узел через торрент бесплатно! Внесите свою лепту в развитие PiratBit!
    Комментировать посты могут только пользователи прошедшие не сложную регистрацию
    Показать сообщения:    

    Тугой узел через торрент
    Скачать бесплатно Тугой узел
    Тугой узел скачать торрент
    Тугой узел смотреть онлайн
    Cкачать фильм Тугой узел бесплатно
    Тугой узел скачать торрент в хорошем качестве
    Тугой узел смотреть онлайн бесплатно в хорошем качестве


    Вы не можете начинать темы
    Вы не можете отвечать на сообщения
    Вы не можете редактировать свои сообщения
    Вы не можете удалять свои сообщения
    Вы не можете голосовать в опросах
    Вы не можете прикреплять файлы к сообщениям
    Вы можете скачивать файлы