Доктор Стрэндж

Лицензия

Добыча

Дубляж

Уэнсдэй

1 сезон

Тор

Дубляж

В эфире

Дубляж

Там, где раки поют

MVO

Властелин колец

1 сезон

Deluxe

pack

Рекомендуем

30

Пиратка

ВАЖНО

ВАЖНО

Ghostwire

Пиратка

jed

RePack

nioh2

RePack

RDR2

RePack

NEED FOR SPEED™ PAYBACK

RePack

скачать торрент

Кинопоиск HD

Острые козырьки 6 сезон

6 сезон

FAR CRY 6

RePack

скачать торрент

Лицензия

скачать торрент

MVO

1

1 сезон

скачать торрент

1 сезон

скачать торрент

Лицензия

  

Птичка на проводе / Bird on a Wire (Джон Бэдэм) [1990, боевик, триллер, комедия, приключения, BDRip 1080p ] 4 x MVO, 3 x DVO, 4 x AVO, VO

Птичка на проводе через торрент pb.wtf

Размер: 15.79 GB | Добавлен: 5 лет 6 мес. назад | Торрент скачан:10 раз
Смотреть онлайн | Скачать   

15-05-2017 13:57 Птичка на проводе Скачать торрент  

Название: Птичка на проводе
Оригинальное название: Bird on a Wire
Год выпуска: 1990
Страна: США
Жанр: боевик, триллер, комедия, приключения
Продолжительность: 01:50:34
Перевод: профессиональный многоголосый, профессиональный двухголосый, авторский

Режиссёр: Джон Бэдэм

В ролях: Мэл Гибсон, Голди Хоун, Дэвид Кэрредин, Билл Дьюк, Стивен Тоболовски, Джоан Северанс, Гарри Цезар, Джефф Кори, Алекс Брухански, Джон Пайпер-Фергюсон, Клайд Кусацу, Джексон Дэвис, Флоренс Пэттерсон, Тим Хили, Уэс Триттер, Лоссен Чэмберс, Кен Камру, Венди Ван Рьесен, Лесли Ивен, Роберт Меткаф

Описание: Дела Рика Джармина, живущего тайной жизнью по специально разработанной ФБР программе защиты свидетелей, складываются не лучшим образом. Дело в том, что пятнадцать лет назад он дал показания против полицейского, промышляющего торговлей наркотиками, что позволило усадить негодяя за решётку. Но преступник, отсидевший свой срок, решает отомстить «стукачу» и начинает охоту на Джармина. Случайно Рик сталкивается с Мэриэнн Грэйвз, своей бывшей невестой. Мэриэнн, естественно, узнаёт его, что облегчает задачу убийцам, следующим за Джармином по пятам. Теперь бывшим возлюбленным вместе предстоит спасаться от злодеев, но именно это помогает им вернуть утраченную любовь...



Качество: BDRip 1080p
Формат: MKV
Видео: MPEG-4 AVC, 14 Mбит/с, 1920x816
Аудио 1: русский, AC3, 192 kbps, 2 ch [профессиональный многоголосый, R5]
Аудио 2: русский, AC3, 192 kbps, 2 ch [профессиональный двухголосый, HTB+]
Аудио 3: русский, DTS, 1509 kbps, 2 ch [авторский, Андрей Гаврилов]

Внешние файлы:
Аудио: русский, AC3, 192 kbps, 2 ch [профессиональный многоголосый, НТВ]
Аудио: русский, AC3, 192 kbps, 2 ch [профессиональный многоголосый, Неоклассика]
Аудио: русский, AC3, 192 kbps, 2 ch [профессиональный многоголосый, СТС]
Аудио: русский, AC3, 192 kbps, 2 ch [профессиональный двухголосый, ОРТ]
Аудио: русский, AC3, 192 kbps, 2 ch [профессиональный двухголосый, Премьер Видео]
Аудио: русский, DTS, 1509 kbps, 2 ch [авторский, Михаил Иванов]
Аудио: русский, AC3, 192 kbps, 2 ch [авторский, Алексей Михалёв]
Аудио: русский, AC3, 224 kbps, 2 ch [авторский, Михаил Яроцкий]
Аудио: русский, AC3, 192 kbps, 2 ch [любительский одноголосый]
Аудио: английский, DTS, 1509 kbps, 2 ch, 48 kHz [оригинал]
Субтитры: русские (для слабослышащих)
Субтитры: английские (для слабослышащих)
Имеются неименованные главы/чаптеры.
Общее
Полное имя : D:\Video\Птичка на проводе.1990.BDRip.1080p by msltel\AVO.rus.Иванов.dts
Формат : DTS
Формат/Информация : Digital Theater Systems
Размер файла : 1,17 Гбайт
Продолжительность : 1 ч. 50 м.
Режим общего битрейта : Постоянный
Общий поток : 1509 Кбит/сек

Аудио
Формат : DTS
Формат/Информация : Digital Theater Systems
Режим : 16
Параметр Endianness формата : Big
Продолжительность : 1 ч. 50 м.
Вид битрейта : Постоянный
Битрейт : 1509 Кбит/сек
Каналы : 2 канала
Расположение каналов : Front: L R
Частота : 48,0 КГц
Частота кадров : 93,750 кадра/сек (512 spf)
Битовая глубина : 24 бит
Метод сжатия : С потерями
Размер потока : 1,17 Гбайт

Общее
Полное имя : D:\Video\Птичка на проводе.1990.BDRip.1080p by msltel\AVO.rus.Михалев.ac3
Формат : AC-3
Формат/Информация : Audio Coding 3
Размер файла : 152 Мбайт
Продолжительность : 1 ч. 50 м.
Режим общего битрейта : Постоянный
Общий поток : 192 Кбит/сек

Аудио
Формат : AC-3
Формат/Информация : Audio Coding 3
Параметр Endianness формата : Big
Продолжительность : 1 ч. 50 м.
Вид битрейта : Постоянный
Битрейт : 192 Кбит/сек
Каналы : 2 канала
Расположение каналов : Front: L R
Частота : 48,0 КГц
Частота кадров : 31,250 кадров/сек (1536 spf)
Битовая глубина : 16 бит
Метод сжатия : С потерями
Размер потока : 152 Мбайт (100%)
ServiceKind/String : Complete Main

Общее
Полное имя : D:\Video\Птичка на проводе.1990.BDRip.1080p by msltel\AVO.rus.Яроцкий.ac3
Формат : AC-3
Формат/Информация : Audio Coding 3
Размер файла : 177 Мбайт
Продолжительность : 1 ч. 50 м.
Режим общего битрейта : Постоянный
Общий поток : 224 Кбит/сек

Аудио
Формат : AC-3
Формат/Информация : Audio Coding 3
Параметр Endianness формата : Big
Продолжительность : 1 ч. 50 м.
Вид битрейта : Постоянный
Битрейт : 224 Кбит/сек
Каналы : 2 канала
Расположение каналов : Front: L R
Частота : 48,0 КГц
Частота кадров : 31,250 кадров/сек (1536 spf)
Битовая глубина : 16 бит
Метод сжатия : С потерями
Размер потока : 177 Мбайт (100%)
ServiceKind/String : Complete Main

Общее
Полное имя : D:\Video\Птичка на проводе.1990.BDRip.1080p by msltel\DVO.rus.OPT.ac3
Формат : AC-3
Формат/Информация : Audio Coding 3
Размер файла : 152 Мбайт
Продолжительность : 1 ч. 50 м.
Режим общего битрейта : Постоянный
Общий поток : 192 Кбит/сек

Аудио
Формат : AC-3
Формат/Информация : Audio Coding 3
Параметр Endianness формата : Big
Продолжительность : 1 ч. 50 м.
Вид битрейта : Постоянный
Битрейт : 192 Кбит/сек
Каналы : 2 канала
Расположение каналов : Front: L R
Частота : 48,0 КГц
Частота кадров : 31,250 кадров/сек (1536 spf)
Битовая глубина : 16 бит
Метод сжатия : С потерями
Размер потока : 152 Мбайт (100%)
ServiceKind/String : Complete Main

Общее
Полное имя : D:\Video\Птичка на проводе.1990.BDRip.1080p by msltel\DVO.rus.Премьер Видео.ac3
Формат : AC-3
Формат/Информация : Audio Coding 3
Размер файла : 152 Мбайт
Продолжительность : 1 ч. 50 м.
Режим общего битрейта : Постоянный
Общий поток : 192 Кбит/сек

Аудио
Формат : AC-3
Формат/Информация : Audio Coding 3
Параметр Endianness формата : Big
Продолжительность : 1 ч. 50 м.
Вид битрейта : Постоянный
Битрейт : 192 Кбит/сек
Каналы : 2 канала
Расположение каналов : Front: L R
Частота : 48,0 КГц
Частота кадров : 31,250 кадров/сек (1536 spf)
Битовая глубина : 16 бит
Метод сжатия : С потерями
Размер потока : 152 Мбайт (100%)
ServiceKind/String : Complete Main

Общее
Полное имя : D:\Video\Птичка на проводе.1990.BDRip.1080p by msltel\eng.SDH.srt
Размер файла : 231 Кбайт

Общее
Полное имя : D:\Video\Птичка на проводе.1990.BDRip.1080p by msltel\MVO.rus.HTB.ac3
Формат : AC-3
Формат/Информация : Audio Coding 3
Размер файла : 152 Мбайт
Продолжительность : 1 ч. 50 м.
Режим общего битрейта : Постоянный
Общий поток : 192 Кбит/сек

Аудио
Формат : AC-3
Формат/Информация : Audio Coding 3
Параметр Endianness формата : Big
Продолжительность : 1 ч. 50 м.
Вид битрейта : Постоянный
Битрейт : 192 Кбит/сек
Каналы : 2 канала
Расположение каналов : Front: L R
Частота : 48,0 КГц
Частота кадров : 31,250 кадров/сек (1536 spf)
Битовая глубина : 16 бит
Метод сжатия : С потерями
Размер потока : 152 Мбайт (100%)
ServiceKind/String : Complete Main

Общее
Полное имя : D:\Video\Птичка на проводе.1990.BDRip.1080p by msltel\MVO.rus.Неоклассика.ac3
Формат : AC-3
Формат/Информация : Audio Coding 3
Размер файла : 152 Мбайт
Продолжительность : 1 ч. 50 м.
Режим общего битрейта : Постоянный
Общий поток : 192 Кбит/сек

Аудио
Формат : AC-3
Формат/Информация : Audio Coding 3
Параметр Endianness формата : Big
Продолжительность : 1 ч. 50 м.
Вид битрейта : Постоянный
Битрейт : 192 Кбит/сек
Каналы : 2 канала
Расположение каналов : Front: L R
Частота : 48,0 КГц
Частота кадров : 31,250 кадров/сек (1536 spf)
Битовая глубина : 16 бит
Метод сжатия : С потерями
Размер потока : 152 Мбайт (100%)
ServiceKind/String : Complete Main

Общее
Полное имя : D:\Video\Птичка на проводе.1990.BDRip.1080p by msltel\MVO.rus.СТС.ac3
Формат : AC-3
Формат/Информация : Audio Coding 3
Размер файла : 152 Мбайт
Продолжительность : 1 ч. 50 м.
Режим общего битрейта : Постоянный
Общий поток : 192 Кбит/сек

Аудио
Формат : AC-3
Формат/Информация : Audio Coding 3
Параметр Endianness формата : Big
Продолжительность : 1 ч. 50 м.
Вид битрейта : Постоянный
Битрейт : 192 Кбит/сек
Каналы : 2 канала
Расположение каналов : Front: L R
Частота : 48,0 КГц
Частота кадров : 31,250 кадров/сек (1536 spf)
Битовая глубина : 16 бит
Метод сжатия : С потерями
Размер потока : 152 Мбайт (100%)
ServiceKind/String : Complete Main

Общее
Полное имя : D:\Video\Птичка на проводе.1990.BDRip.1080p by msltel\original.eng.dts
Формат : DTS
Формат/Информация : Digital Theater Systems
Размер файла : 1,17 Гбайт
Продолжительность : 1 ч. 50 м.
Режим общего битрейта : Постоянный
Общий поток : 1509 Кбит/сек

Аудио
Формат : DTS
Формат/Информация : Digital Theater Systems
Режим : 16
Параметр Endianness формата : Big
Продолжительность : 1 ч. 50 м.
Вид битрейта : Постоянный
Битрейт : 1509 Кбит/сек
Каналы : 2 канала
Расположение каналов : Front: L R
Частота : 48,0 КГц
Частота кадров : 93,750 кадра/сек (512 spf)
Битовая глубина : 24 бит
Метод сжатия : С потерями
Размер потока : 1,17 Гбайт

Общее
Полное имя : D:\Video\Птичка на проводе.1990.BDRip.1080p by msltel\rus.SDH.srt
Размер файла : 178 Кбайт

Общее
Полное имя : D:\Video\Птичка на проводе.1990.BDRip.1080p by msltel\rus.любительский одноголосый.ac3
Формат : AC-3
Формат/Информация : Audio Coding 3
Размер файла : 152 Мбайт
Продолжительность : 1 ч. 50 м.
Режим общего битрейта : Постоянный
Общий поток : 192 Кбит/сек

Аудио
Формат : AC-3
Формат/Информация : Audio Coding 3
Параметр Endianness формата : Big
Продолжительность : 1 ч. 50 м.
Вид битрейта : Постоянный
Битрейт : 192 Кбит/сек
Каналы : 2 канала
Расположение каналов : Front: L R
Частота : 48,0 КГц
Частота кадров : 31,250 кадров/сек (1536 spf)
Битовая глубина : 16 бит
Метод сжатия : С потерями
Размер потока : 152 Мбайт (100%)
ServiceKind/String : Complete Main

Общее
Уникальный идентификатор : 225912270879614946930440637019125243896 (0xA9F51EE81B256873B83F33AFCA60DFF8)
Полное имя : D:\Video\Птичка на проводе.1990.BDRip.1080p by msltel\Птичка на проводе.1990.BDRip.1080p by msltel.mkv
Формат : Matroska
Версия формата : Version 4 / Version 2
Размер файла : 12,3 Гбайт
Продолжительность : 1 ч. 50 м.
Общий поток : 15,9 Мбит/сек
Название фильма : Rip by msltel
Дата кодирования : UTC 2017-05-15 01:26:01
Программа кодирования : mkvmerge v8.2.0 ('World of Adventure') 64bit
Библиотека кодирования : libebml v1.3.1 + libmatroska v1.4.2

Видео
Идентификатор : 1
Формат : AVC
Формат/Информация : Advanced Video Codec
Профиль формата : [email protected]
Параметр CABAC формата : Да
Параметр ReFrames формата : 4 кадра
Идентификатор кодека : V_MPEG4/ISO/AVC
Продолжительность : 1 ч. 50 м.
Битрейт : 14,0 Мбит/сек
Ширина : 1920 пикселей
Высота : 816 пикселей
Соотношение сторон : 2,35:1
Режим частоты кадров : Постоянный
Частота кадров : 23,976 (24000/1001) кадра/сек
Цветовое пространство : YUV
Субдискретизация насыщенности : 4:2:0
Битовая глубина : 8 бит
Тип развёртки : Прогрессивная
Бит/(Пиксели*Кадры) : 0.372
Размер потока : 10,8 Гбайт (88%)
Библиотека кодирования : x264 core 146 r2538 121396c
Настройки программы : cabac=1 / ref=4 / deblock=1:-3:-2 / analyse=0x3:0x113 / me=umh / subme=11 / psy=1 / psy_rd=1.00:0.15 / mixed_ref=1 / me_range=32 / chroma_me=1 / trellis=2 / 8x8dct=1 / cqm=0 / deadzone=21,11 / fast_pskip=0 / chroma_qp_offset=-3 / threads=6 / lookahead_threads=1 / sliced_threads=0 / nr=0 / decimate=1 / interlaced=0 / bluray_compat=0 / constrained_intra=0 / bframes=12 / b_pyramid=2 / b_adapt=2 / b_bias=0 / direct=1 / weightb=1 / open_gop=0 / weightp=2 / keyint=230 / keyint_min=23 / scenecut=40 / intra_refresh=0 / rc_lookahead=40 / rc=crf / mbtree=0 / crf=21.5 / qcomp=0.60 / qpmin=0 / qpmax=69 / qpstep=4 / vbv_maxrate=62500 / vbv_bufsize=78125 / crf_max=0.0 / nal_hrd=none / filler=0 / ip_ratio=1.40 / pb_ratio=1.30 / aq=1:1.00
Язык : English
Default : Да
Forced : Нет

Аудио #1
Идентификатор : 2
Формат : AC-3
Формат/Информация : Audio Coding 3
Параметр Endianness формата : Big
Идентификатор кодека : A_AC3
Продолжительность : 1 ч. 50 м.
Вид битрейта : Постоянный
Битрейт : 192 Кбит/сек
Каналы : 2 канала
Расположение каналов : Front: L R
Частота : 48,0 КГц
Частота кадров : 31,250 кадров/сек (1536 spf)
Битовая глубина : 16 бит
Метод сжатия : С потерями
Размер потока : 152 Мбайт (1%)
Заголовок : MVO (R5)
Язык : Russian
ServiceKind/String : Complete Main
Default : Да
Forced : Нет

Аудио #2
Идентификатор : 3
Формат : AC-3
Формат/Информация : Audio Coding 3
Параметр Endianness формата : Big
Идентификатор кодека : A_AC3
Продолжительность : 1 ч. 50 м.
Вид битрейта : Постоянный
Битрейт : 192 Кбит/сек
Каналы : 2 канала
Расположение каналов : Front: L R
Частота : 48,0 КГц
Частота кадров : 31,250 кадров/сек (1536 spf)
Битовая глубина : 16 бит
Метод сжатия : С потерями
Размер потока : 152 Мбайт (1%)
Заголовок : DVO (HTB+)
Язык : Russian
ServiceKind/String : Complete Main
Default : Нет
Forced : Нет

Аудио #3
Идентификатор : 4
Формат : DTS
Формат/Информация : Digital Theater Systems
Режим : 16
Параметр Endianness формата : Big
Идентификатор кодека : A_DTS
Продолжительность : 1 ч. 50 м.
Вид битрейта : Постоянный
Битрейт : 1509 Кбит/сек
Каналы : 2 канала
Расположение каналов : Front: L R
Частота : 48,0 КГц
Частота кадров : 93,750 кадра/сек (512 spf)
Битовая глубина : 24 бит
Метод сжатия : С потерями
Размер потока : 1,17 Гбайт (10%)
Заголовок : AVO (Андрей Гаврилов)
Язык : Russian
Default : Нет
Forced : Нет

Меню
00:00:00.000 : :Chapter 01
00:08:41.645 : :Chapter 02
00:18:18.763 : :Chapter 03
00:27:45.871 : :Chapter 04
00:34:08.545 : :Chapter 05
00:51:28.168 : :Chapter 06
01:02:10.934 : :Chapter 07
01:10:31.100 : :Chapter 08
01:19:35.729 : :Chapter 09
01:29:03.503 : :Chapter 10
01:40:15.259 : :Chapter 11
01:46:50.404 : :Chapter 12
01:50:34.586 : :Chapter 13



Скачать Птичка на проводе через торрент http://s019.radikal.ru/i615/1705/61/f5a71a0fc01a.jpg Скачать, смотреть онлайн Птичка на проводе бесплантно в хорошем качестве Описание: Дела Рика Джармина, живущего тайной жизнью по специально разработанной ФБР программе защиты свидетелей, складываются не лучшим ... 10 10 4
Info! Золотая раздача, скачанное не засчитывается.
Торрент: Зарегистрирован [2017-05-15 13:57] · скачан: 10 раз
Статус: √ проверено
Размер: 15.79 GB
Как cкачать? Как скачать Птичка на проводе через торрент | UTorrent

% Раздел Тема Автор DL S | L
Фильмы [HD 720p, 1080p] (Хороший звук DUB, MVO) [ 6.45 GB ] Птичка на проводе / Bird on a Wire | MVO | 720p msltel Скачать
1 | 0

28-11-2019 20:33  


Отключить вcю реклaмy на сайте, в т.ч. и в плеере онлайн просмотра!

    Дорогой пользователь! Огромная просьба, поблагодарите релизера, оцените раздачу и оставьте свои комментарий, если Вы скачали Птичка на проводе через торрент бесплатно!!
    Комментировать посты могут только пользователи прошедшие не сложную регистрацию
    Показать сообщения:    


    Птичка на проводе через торрент
    Скачать бесплатно Птичка на проводе
    Птичка на проводе скачать торрент
    Птичка на проводе смотреть онлайн
    Cкачать фильм Птичка на проводе бесплатно
    Птичка на проводе скачать торрент в хорошем качестве
    Птичка на проводе смотреть онлайн бесплатно в хорошем качестве
    Вы не можете начинать темы
    Вы не можете отвечать на сообщения
    Вы не можете редактировать свои сообщения
    Вы не можете удалять свои сообщения
    Вы не можете голосовать в опросах
    Вы не можете прикреплять файлы к сообщениям
    Вы можете скачивать файлы
    Птичка на проводе / Bird on a Wire [1990, боевик, триллер, комедия, приключения, BDRip 1080p ] 4 x MVO, 3 x DVO, 4 x AVO, VO смотреть онлайн, скачать торрент picoco.icu