Ссылка на приватное зеркало нашего сайта всего за 1$. Внимание количество ограничено!!!

2 сезон

iTunes

1 сезон

1

2 сезон

2 сезон

iTunes

1 сезон

RePack

30

Новинка

ВАЖНО

ИГРА 18+

pack

RePack

MK11
pack

Забери бонус

RePack

jed

!!Акция!!

Alien_Rage

RePack

fifa19

RePack

Assassins Creed: Odyssey

RePack

NEED FOR SPEED™ PAYBACK

4 сезон

9 сезон

Бесстыжие 9 сезон

Все сериалы

все сериалы на PB.wtf

RePack

FAR CRY 5
  

Жена смотрителя зоопарка / The Zookeeper's Wife (Ники Каро) [2017, драма, военный, биография, WEB-DL 1080p] Дубляж - [Лицензия / iTunes] pb.wtf

Жена смотрителя зоопарка через торрент pb.wtf

Размер: 4.19 GB | Добавлен: 3 года 6 мес. назад | Торрент скачан:291 раз
Скачать  

15-05-2017 16:19 Жена смотрителя зоопарка Скачать торрент  

Жена смотрителя зоопарка / The Zookeeper's Wife
««Вместо страха – надежда, вместо отчаяния – жизнь»»

Год выпуска: 2017
Страна: Чехия, Великобритания, США
Жанр: драма, военный, биография, история

Продолжительность: 02:01:19
Перевод: Дубляж - [Лицензия / iTunes]
Режиссер: Ники Каро
В ролях: Джессика Честейн (Antonina Zabinski), Йохан Хелденберг (Jan Zabinski), Даниэль Брюль (Lutz Heck), Тимоти Редфорд (Ryszard Zabinski (Younger)), Эфрат Дор (Magda Gross), Иддо Голдберг (Maurycy Fraenkel), Шира Хаас (Urszula), Майкл МакЭлхаттон (Jerzyk), Вэл Малоку (Ryszard Zabinski (Older)), Марта Иссова (Regina Kenigswein), Даниель Ратиморский (Samuel Kenigswein), Фредерик Престон (Miecio Kenigswein)
Описание:
Реальная история отважного подвига смотрителей Варшавского зоопарка Яна и Антонины Жабинских, давших убежище и сохранивших жизнь более, чем 300 евреям во время II Мировой войны. Ежедневный риск и опасность осложняются для Жабинских взаимоотношениями с бывшим другом семьи, а ныне высокопоставленным нацистским чиновником Лутцем Хеком, влюбленным в Антонину.
Рейтинг:

MPAA: PG-13 - Детям до 13 лет просмотр не желателен
Качество: WEB-DL 1080p
Формат: MKV
Видео: AVC, 1920x804 (2.40:1), 4465 kbps, 25 fps, 0,116 bpp
Аудио: русский / AC3 / 5.1 / 48 kHz / 384 kbps / |Дубляж, iTunes|
Навигация по главам: есть
Релиз от:
General
Unique ID : 244794289529261611389280892673011775917 (0xB829AA4D4BB9D410882DC67C5AB479AD)
Complete name : E:\The.Zookeeper_s.Wife.2017.1080p.WEB-DL.Rus.mkv
Format : Matroska
Format version : Version 2
File size : 4.19 GiB
Duration : 2 h 1 min
Overall bit rate : 4 948 kb/s
Movie name : The Zookeeper's Wife (2017) - Release for HDCLUB
Encoded date : UTC 2017-05-14 18:54:25
Writing application : mkvmerge v3.4.0 ('Rapunzel') built on May 15 2010 09:38:20
Writing library : libebml v0.8.0 + libmatroska v0.9.0

Video
ID : 1
Format : AVC
Format/Info : Advanced Video Codec
Format profile : High@L4
Format settings, CABAC : Yes
Format settings, ReFrames : 5 frames
Codec ID : V_MPEG4/ISO/AVC
Duration : 2 h 1 min
Bit rate : 4 465 kb/s
Width : 1 920 pixels
Height : 804 pixels
Display aspect ratio : 2.40:1
Frame rate mode : Constant
Frame rate : 25.000 FPS
Color space : YUV
Chroma subsampling : 4:2:0
Bit depth : 8 bits
Scan type : Progressive
Bits/(Pixel*Frame) : 0.116
Stream size : 3.78 GiB (90%)
Title : The Zookeeper's Wife (2017) - Release for HDCLUB
Language : English
Default : Yes
Forced : No
Color range : Limited
Color primaries : BT.709
Transfer characteristics : BT.709
Matrix coefficients : BT.709

Audio
ID : 2
Format : AC-3
Format/Info : Audio Coding 3
Mode extension : CM (complete main)
Format settings, Endianness : Big
Codec ID : A_AC3
Duration : 2 h 1 min
Bit rate mode : Constant
Bit rate : 384 kb/s
Channel(s) : 6 channels
Channel positions : Front: L C R, Side: L R, LFE
Sampling rate : 48.0 kHz
Frame rate : 31.250 FPS (1536 spf)
Compression mode : Lossy
Stream size : 333 MiB (8%)
Title : AC3 5.1 @ 384 kbps - DUB, iTunes
Language : Russian
Default : Yes
Forced : No

Menu
00:00:00.000 : en:1
00:07:42.200 : en:2
00:13:51.640 : en:3
00:20:02.480 : en:4
00:26:20.320 : en:5
00:31:44.280 : en:6
00:38:11.720 : en:7
00:43:35.400 : en:8
00:51:52.320 : en:9
00:58:01.040 : en:10
01:04:34.800 : en:11
01:10:52.600 : en:12
01:16:09.000 : en:13
01:21:45.200 : en:14
01:28:12.440 : en:15
01:34:31.440 : en:16
01:41:23.720 : en:17
01:50:37.720 : en:18
pb.wtf



Скачать Жена смотрителя зоопарка через торрент http://i6.imageban.ru/out/2017/05/15/a873e474ecd636fcee2a62b2ff39685c.jpg Скачать фильм Жена смотрителя зоопарка через торрент бесплантно в хорошем качестве Описание: Реальная история отважного подвига смотрителей Варшавского зоопарка Яна и Антонины Жабинских, давших убежище и сохранивших жизнь ... 10 10 7
Info! Золотая раздача, скачанное не засчитывается.
Торрент: Зарегистрирован [2017-05-15 16:19] · скачан: 291 раз
Статус: √ проверено
Размер: 4.19 GB
Как cкачать? Как скачать Жена смотрителя зоопарка через торрент | qTorrent

28-11-2019 20:33  

Отключить всю рекламу на сайте

18-05-2017 12:17 Жена смотрителя зоопарка Скачать торрент  

Оо, качну из за того, что там снялся в эпизоде знакомый один)pb.wtf



    Дорогой пользователь! Огромная просьба, поблагодарите релизера, оцените раздачу и оставьте свои комментарий, если Вы скачали Жена смотрителя зоопарка через торрент бесплатно! Внесите свою лепту в развитие PiratBit!
    Комментировать посты могут только пользователи прошедшие не сложную регистрацию
    Показать сообщения:    

    Жена смотрителя зоопарка через торрент
    Скачать бесплатно Жена смотрителя зоопарка
    Жена смотрителя зоопарка скачать торрент
    Жена смотрителя зоопарка смотреть онлайн
    Cкачать фильм Жена смотрителя зоопарка бесплатно
    Жена смотрителя зоопарка скачать торрент в хорошем качестве
    Жена смотрителя зоопарка смотреть онлайн бесплатно в хорошем качестве


    Вы не можете начинать темы
    Вы не можете отвечать на сообщения
    Вы не можете редактировать свои сообщения
    Вы не можете удалять свои сообщения
    Вы не можете голосовать в опросах
    Вы не можете прикреплять файлы к сообщениям
    Вы можете скачивать файлы