2 сезон

iTunes

1 сезон

1

iTunes

iTunes

iTunes

1 сезон

RePack

30

ИГРА 18+

pack

ВАЖНО

!!Акция!!

Alien_RageХит недели

RePack

MK11
pack

Забери бонус

RePack

jed

!!Акция!!

Alien_Rage

RePack

fifa19

RePack

Assassins Creed: Odyssey

RePack

NEED FOR SPEED™ PAYBACK

4 сезон

9 сезон

Бесстыжие 9 сезон

Все сериалы

все сериалы на PB.wtf

RePack

FAR CRY 5
  

Домохозяйка / Housesitter (Фрэнк Оз / Frank Oz) [1992, Мелодрама, комедия, BDRip 720p] [Dub] (SDI Media Russia) pb.wtf

Домохозяйка через торрент pb.wtf

Размер: 2.08 GB | Добавлен: 3 года 5 мес. назад | Торрент скачан:38 раз
Скачать  

15-05-2017 17:27 Домохозяйка Скачать торрент  

Домохозяйка / Housesitter Год выпуска: 1992
Страна: США
Жанр: Мелодрама, комедия.
Продолжительность: 01:41:21
Перевод: Профессиональный (дублированный) SDI Media Russia
Cубтитры: Нет
Оригинальная аудиодорожка: Английский

Режиссер: Фрэнк Оз / Frank Oz

В ролях: Стив Мартин (Newton Davis), Голди Хоун (Gwen Phillips), Дана Дилэйни (Becky Metcalf), Джули Харрис (Edna Davis), Дональд Моффет (George Davis), Питер МакНикол (Marty), Ричард Б. Шалл (Ralph), Лорел Кронин (Mary), Рой Купер (Winston Moseby), Кристофер Дуранг (Reverend Lipton).

Описание: Ньютон Дэвис в отчаянии. Его бросила любимая, и жизнь потеряла смысл. Так и пребывал бы он в депрессии, если бы не знакомство с очаровательной Гвен Филлипс. С ее появлением жизнь Дэвиса переворачивается с ног на голову! Неугомонная Гвен, как стихийное бедствие, вовлекает его в водоворот нелепых, смешных ситуаций. Но в конце концов именно она поможет Дэвису обрести настоящую любовь!


Качество видео: BDRip 720p
Формат видео: MKV
Видео: 1280x696 (1,85:1), 23.976 fps, AVC, ~2363 Kbps
Аудио: Dolby AC3 48000Hz stereo 192kbps SDI Media Russia
Аудио: Dolby AC3 48000Hz stereo 384kbps Original
Релиз:

Цитата:

Видео с буржуйского сайта к нему добавлена русская дорожка.

Фильм дублирован студией SDI Media Russia в 2017 году

Роли дублировали: Владимир Антоник, Мария Овчинникова, Василиса Воронина, Татьяна Весёлкина, Александр Новиков, Андрей Гриневич. Александра Курагина.

Общее
Уникальный идентификатор : 195414078800644187406795022247338141366 (0x930361F1879A7A838A7451D42C9766B6)
Полное имя : E:\Домохозяйка Housesitter 1992.mkv
Формат : Matroska
Версия формата : Version 4 / Version 2
Размер файла : 2,08 Гбайт
Продолжительность : 1 ч. 41 м.
Режим общего битрейта : Переменный
Общий поток : 2941 Кбит/сек
Дата кодирования : UTC 2017-05-15 12:25:00
Программа кодирования : mkvmerge v9.6.0 ('Slave To Your Mind') 64bit
Библиотека кодирования : libebml v1.3.4 + libmatroska v1.4.5

Видео
Идентификатор : 1
Формат : AVC
Формат/Информация : Advanced Video Codec
Профиль формата : High@L4.1
Параметр CABAC формата : Да
Параметр ReFrames формата : 7 кадров
Идентификатор кодека : V_MPEG4/ISO/AVC
Продолжительность : 1 ч. 41 м.
Вид битрейта : Переменный
Битрейт : 2363 Кбит/сек
Максимальный битрейт : 50,0 Мбит/сек
Ширина : 1280 пикселей
Высота : 696 пикселей
Соотношение сторон : 1,85:1
Режим частоты кадров : Постоянный
Частота кадров : 23,976 (24000/1001) кадра/сек
Цветовое пространство : YUV
Субдискретизация насыщенности : 4:2:0
Битовая глубина : 8 бит
Тип развёртки : Прогрессивная
Бит/(Пиксели*Кадры) : 0.111
Размер потока : 1,67 Гбайт (80%)
Библиотека кодирования : x264 core 129 r2230 1cffe9f
Настройки программы : cabac=1 / ref=8 / deblock=1:-1:-1 / analyse=0x3:0x133 / me=umh / subme=9 / psy=1 / psy_rd=1.00:0.15 / mixed_ref=1 / me_range=16 / chroma_me=1 / trellis=2 / 8x8dct=1 / cqm=0 / deadzone=21,11 / fast_pskip=1 / chroma_qp_offset=-3 / threads=12 / lookahead_threads=2 / sliced_threads=0 / nr=0 / decimate=1 / interlaced=0 / bluray_compat=0 / constrained_intra=0 / bframes=8 / b_pyramid=1 / b_adapt=2 / b_bias=0 / direct=3 / weightb=1 / open_gop=0 / weightp=2 / keyint=120 / keyint_min=12 / scenecut=40 / intra_refresh=0 / rc_lookahead=60 / rc=crf / mbtree=1 / crf=20.0 / qcomp=0.75 / qpmin=0 / qpmax=69 / qpstep=8 / vbv_maxrate=50000 / vbv_bufsize=32000 / crf_max=0.0 / nal_hrd=vbr / ip_ratio=1.40 / aq=1:1.00 / zones=141615,145798,crf=25
Default : Да
Forced : Нет
Цветовой диапазон : Limited
Основные цвета : BT.709
Характеристики трансфера : BT.709
Коэффициенты матрицы : BT.709

Аудио #1
Идентификатор : 2
Формат : AC-3
Формат/Информация : Audio Coding 3
Расширение режима : CM (complete main)
Параметр Endianness формата : Big
Идентификатор кодека : A_AC3
Продолжительность : 1 ч. 41 м.
Вид битрейта : Постоянный
Битрейт : 192 Кбит/сек
Каналы : 2 канала
Расположение каналов : Front: L R
Частота : 48,0 КГц
Частота кадров : 31,250 кадров/сек (1536 spf)
Метод сжатия : С потерями
Размер потока : 139 Мбайт (7%)
Заголовок : SDI Media Russia
Язык : Russian
Default : Нет
Forced : Нет

Аудио #2
Идентификатор : 3
Формат : AC-3
Формат/Информация : Audio Coding 3
Расширение режима : CM (complete main)
Параметр Endianness формата : Big
Идентификатор кодека : A_AC3
Продолжительность : 1 ч. 41 м.
Вид битрейта : Постоянный
Битрейт : 384 Кбит/сек
Каналы : 2 канала
Расположение каналов : Front: L R
Частота : 48,0 КГц
Частота кадров : 31,250 кадров/сек (1536 spf)
Метод сжатия : С потерями
Размер потока : 278 Мбайт (13%)
Язык : English
Default : Да
Forced : Нет

Меню
00:00:00.000 : en:Opening Credits
00:06:58.251 : en:"Gwen Do You Get Off?"
00:15:40.106 : en:Homeward Bound
00:20:26.225 : en:Off to a Good Start
00:29:59.089 : en:Caught in a Trap
00:40:21.502 : en:Davis Strikes Back
00:44:59.447 : en:Divine Intervention
00:50:16.055 : en:Married Life
00:58:54.114 : en:Kicking Architectural Butt
01:04:14.809 : en:Heating up an Old Flame
01:10:08.162 : en:Righting a Wrong
01:15:41.829 : en:Family Gathering
01:23:33.550 : en:An Irish Lullaby
01:28:10.535 : en:Davis Stories
01:33:18.051 : en:The Truth at Last
01:37:45.443 : en:End Credits
pb.wtf



Скачать Домохозяйка через торрент http://i89.fastpic.ru/big/2017/0515/2f/dedb729f711d568075ac6d27e88ab52f.jpg Скачать фильм Домохозяйка через торрент бесплантно в хорошем качестве Описание: Ньютон Дэвис в отчаянии. Его бросила любимая, и жизнь потеряла смысл. Так и пребывал бы он в депрессии, если бы не знакомство с ... 10 10 1
Торрент: Зарегистрирован [2017-05-15 17:27] · скачан: 38 раз
Статус: # сомнительно
Размер: 2.08 GB
Как cкачать? Как скачать Домохозяйка через торрент | qTorrent

% Раздел Тема Автор DL S | L
Фильмы [HD 720p, 1080p] (Хороший звук DUB, MVO) [ 9.97 GB ] Домохозяйка / HouseSitter [1992 BDRip 720p от KORSAR][DUB + 2xMVO + DVO + 2xAVO] Cthulhu Скачать
1 | 0
Фильмы [HD 720p, 1080p] (Хороший звук DUB, MVO) [ 11.27 GB ] Домохозяйка / HouseSitter [1992 BDRip 1080p by msltel] 2 x MVO DVO AVO msltel Скачать
1 | 0
Фильмы [HD 720p, 1080p] (Хороший звук DUB, MVO) [ 5.65 GB ] Домохозяйка / HouseSitter [1992 BDRip 720p by msltel] 2 x MVO DVO AVO msltel Скачать
1 | 0

28-11-2019 20:33  

Отключить всю рекламу на сайте

15-05-2017 17:29 Домохозяйка Скачать торрент  

Модераторам: если по тех параметрам не проходит то хотя бы сомнительно, ранее фильма в бубляже не было pb.wtf



    Дорогой пользователь! Огромная просьба, поблагодарите релизера, оцените раздачу и оставьте свои комментарий, если Вы скачали Домохозяйка через торрент бесплатно! Внесите свою лепту в развитие PiratBit!
    Комментировать посты могут только пользователи прошедшие не сложную регистрацию
    Показать сообщения:    

    Домохозяйка через торрент
    Скачать бесплатно Домохозяйка
    Домохозяйка скачать торрент
    Домохозяйка смотреть онлайн
    Cкачать фильм Домохозяйка бесплатно
    Домохозяйка скачать торрент в хорошем качестве
    Домохозяйка смотреть онлайн бесплатно в хорошем качестве


    Вы не можете начинать темы
    Вы не можете отвечать на сообщения
    Вы не можете редактировать свои сообщения
    Вы не можете удалять свои сообщения
    Вы не можете голосовать в опросах
    Вы не можете прикреплять файлы к сообщениям
    Вы можете скачивать файлы