Ссылка на приватное зеркало нашего сайта всего за 1$. Внимание количество ограничено!!!

2 сезон

iTunes

1 сезон

1

iTunes

iTunes

iTunes

1 сезон

RePack

30

ИГРА 18+

pack

ВАЖНО

!!Акция!!

Alien_RageХит недели

RePack

MK11
pack

Забери бонус

RePack

jed

!!Акция!!

Alien_Rage

RePack

fifa19

RePack

Assassins Creed: Odyssey

RePack

NEED FOR SPEED™ PAYBACK

4 сезон

9 сезон

Бесстыжие 9 сезон

Все сериалы

все сериалы на PB.wtf

RePack

FAR CRY 5
  

Капитанша / Сезон: 1 / Серии 1-16 из 16 (Владимир Янощук) [2017, мелодрама, приключения, HDTVRip] pb.wtf

Капитанша через торрент pb.wtf

Размер: 10.13 GB | Добавлен: 3 года 5 мес. назад | Торрент скачан:304 раза
Скачать  

16-05-2017 04:51 Капитанша Скачать торрент  

Капитанша


  • Год выпуска: 2017

  • Страна: Украина
  • Жанр: мелодрама, приключения
  • Продолжительность: 00:50:24 (Серия)
  • Перевод: Не требуется [Русский]
  • Режиссер: Владимир Янощук
  • В ролях:

    Анна Михайловская (Александра Ермоленко), Александр Ратников (Леонид Верховцев), Анна Шепелева, Леонид Громов (дядя Николай), Маргарита Шубина (Катерина), Борис Хвошнянский, Николай Боклан, Анжелика Горб, Виталий Салий, Сергей Малага, Людмила Кузьмина, Евгений Давиденко


  • Главная героиня фильма – девушка из богатой семьи Александра, родители которой погибают в автокатастрофе. Опеку над девушкой оформляют ее ближайшие родственники из села – родной дядя Николай и его жена Катерина, которая надеется разбогатеть за счет наследства осиротевшей племянницы. Девушка мечтает поскорее вырваться из дома своих опекунов и готовится к поступлению в художественный колледж, но судьба распорядится иначе – ее ждут моря и далекие плаванья, новые встречи и горькие потрясения…
  • Рейтинг:



  • Качество: HDTVRip
  • Формат: :AVI
  • Видео кодек: XviD
  • Аудио кодек: AC3
  • Видео: 720x400 (16:9), 1599 kbps, 25 fps, 0,222 bpp
  • Аудио: 2.0 / 48 kHz / 192 kbps
  • Релиз от:

    Внимание! Раздача ведётся путём добавления новых серий; при каждом добавлении создаётся новый торрент. Чтобы начать докачку новой серии, пользователям необходимо сделать следующее:
    (1) остановить скачивание,
    (2) удалить старый торрент у себя из клиента (старые серии удалять не надо),
    (3) скачать новый торрент и запустить его у себя в клиенте вместо старого, при этом указать клиенту путь в старую папку куда и должно происходить скачивание новых серий.
    Ваш клиент при этом должен произвести хеширование (проверку) старой папки (если не производит сам - помогите ему сделать это), и будет докачивать только те серии которых у вас ещё нет. Старые серии при этом не удаляются, а продолжают раздаваться!
    Eсли вы уже удалили старые серии, то предотвратить повторную закачку старых серий можно, отжав галочку в соответсвующих местах при запуске нового торрента. По возможности, желательно не удалять старые серии как можно дольше чтобы релизёр не столько продолжал раздавать старые серии, а смог сконцентрироваться на новых.

    General
    Complete name : D:\Фильмы\Kapitansha.2017.HDTVRip.Files-x\02.Kapitansha.2017.HDTVRip.Files-x.avi
    Format : AVI
    Format/Info : Audio Video Interleave
    File size : 649 MiB
    Duration : 50 min
    Overall bit rate : 1 801 kb/s
    Writing application : VirtualDubMod 1.5.10.3 | www.virtualdub-fr.org || (build 2550/release)
    Writing library : VirtualDubMod build 2550/release

    Video
    ID : 0
    Format : MPEG-4 Visual
    Format profile : Advanced Simple@L5
    Format settings, BVOP : 1
    Format settings, QPel : No
    Format settings, GMC : No warppoints
    Format settings, Matrix : Custom
    Codec ID : XVID
    Codec ID/Hint : XviD
    Duration : 50 min
    Bit rate : 1 600 kb/s
    Width : 720 pixels
    Height : 400 pixels
    Display aspect ratio : 16:9
    Frame rate : 25.000 FPS
    Color space : YUV
    Chroma subsampling : 4:2:0
    Bit depth : 8 bits
    Scan type : Progressive
    Compression mode : Lossy
    Bits/(Pixel*Frame) : 0.222
    Stream size : 577 MiB (89%)
    Writing library : XviD 73

    Audio
    ID : 1
    Format : AC-3
    Format/Info : Audio Coding 3
    Mode extension : CM (complete main)
    Format settings, Endianness : Big
    Codec ID : 2000
    Duration : 50 min
    Bit rate mode : Constant
    Bit rate : 192 kb/s
    Channel(s) : 2 channels
    Channel positions : Front: L R
    Sampling rate : 48.0 kHz
    Frame rate : 31.250 FPS (1536 spf)
    Compression mode : Lossy
    Stream size : 69.2 MiB (11%)
    Alignment : Split accross interleaves
    Interleave, duration : 40 ms (1.00 video frame)
    Interleave, preload duration : 500 ms



    Скриншоты:
    скриншот   скриншот   скриншот   скриншот   скриншот   скриншот   скриншот  
    скриншот  

    Раздача ведётся путём добавления новых серий. Добавлена 16 серия (26.05.2017).Просьба перекачать торрент файл.

    pb.wtf



  • Скачать Капитанша через торрент http://i91.fastpic.ru/big/2017/0516/b6/2d9bcfbc6eee133858dc28d93e0a50b6.jpg Скачать фильм Капитанша через торрент бесплантно в хорошем качестве qw.png Главная героиня фильма – девушка из богатой семьи Александра, родители которой погибают в автокатастрофе. Опеку над девушкой ... 8.2 10 10
    Info! Золотая раздача, скачанное не засчитывается.
    Торрент: Зарегистрирован [2017-05-25 23:34] · скачан: 304 раз
    Статус: √ проверено
    Размер: 10.13 GB
    Как cкачать? Как скачать Капитанша через торрент | qTorrent

    % Раздел Тема Автор DL S | L
    Наши сериалы [ 23.74 GB ] Капитанша. Продолжение / Капітанша / Сезон: 2 / Серии: 1-16 из 16 [2019 Мело HDTVRip 720p] bober100 Скачать
    1 | 0
    Наши сериалы [ 10.36 GB ] Капитанша. Продолжение / Капітанша / Сезон: 2 / Серии: 1-16 из 16 [2019 Мело WEBRip-AVC] bober100 Скачать
    1 | 0
    Наши сериалы [ 10.41 GB ] Капитанша. Продолжение / Капітанша / Сезон: 2 / Серии: 1-16 из 16 [2019 Мело WEB-DLRip] bober100 Скачать
    1 | 0
    Наши сериалы [ 9.38 GB ] Капитанша. Продолжение / Капітанша / Сезон: 2 / Серии: 1-16 из 16 [2019 Мело SATRip] bober100 Скачать
    1 | 0
    Наши сериалы [ 10.1 GB ] Капитанша. Продолжение / Сезон-2 / Серии: 1-16 из 16 [2019 SATRip-AVC] aleksan55 Скачать
    1 | 0
    R.G.Resident - Сериалы, Видео [ 40.6 GB ] Капитанша / Сезон: 1 / Серии 1-16 из 16 [2017 HDTV 1080i ] -Lexx- Скачать
    1 | 0

    28-11-2019 20:33  

    Отключить всю рекламу на сайте

      Дорогой пользователь! Огромная просьба, поблагодарите релизера, оцените раздачу и оставьте свои комментарий, если Вы скачали Капитанша через торрент бесплатно! Внесите свою лепту в развитие PiratBit!
      Комментировать посты могут только пользователи прошедшие не сложную регистрацию
      Показать сообщения:    

      Капитанша через торрент
      Скачать бесплатно Капитанша
      Капитанша скачать торрент
      Капитанша смотреть онлайн
      Cкачать фильм Капитанша бесплатно
      Капитанша скачать торрент в хорошем качестве
      Капитанша смотреть онлайн бесплатно в хорошем качестве


      Вы не можете начинать темы
      Вы не можете отвечать на сообщения
      Вы не можете редактировать свои сообщения
      Вы не можете удалять свои сообщения
      Вы не можете голосовать в опросах
      Вы не можете прикреплять файлы к сообщениям
      Вы можете скачивать файлы