Ссылка на приватное зеркало нашего сайта всего за 1$. Внимание количество ограничено!!!

2 сезон

iTunes

1 сезон

1

iTunes

iTunes

iTunes

1 сезон

RePack

30

ИГРА 18+

pack

ВАЖНО

!!Акция!!

Alien_RageХит недели

RePack

MK11
pack

Забери бонус

RePack

jed

!!Акция!!

Alien_Rage

RePack

fifa19

RePack

Assassins Creed: Odyssey

RePack

NEED FOR SPEED™ PAYBACK

4 сезон

9 сезон

Бесстыжие 9 сезон

Все сериалы

все сериалы на PB.wtf

RePack

FAR CRY 5
  

Автобан / Collide (Эрен Криви) [2016, боевик, триллер, BDRip 1080p] Дубляж - [Лицензия / iTunes] pb.wtf

Автобан через торрент pb.wtf

Размер: 12.33 GB | Добавлен: 3 года 5 мес. назад | Торрент скачан:163 раза
Скачать  

16-05-2017 05:38 Автобан Скачать торрент  

Автобан / Collide
««У скорости нет предела»»

Год выпуска: 2016
Страна: Великобритания, Германия, Китай
Жанр: боевик, триллер

Продолжительность: 01:38:42
Перевод: Дубляж - [Лицензия / iTunes]
Субтитры: английские
Режиссер: Эрен Криви
В ролях: Николас Холт (Casey Stein), Фелисити Джонс (Juliette Marne), Энтони Хопкинс (Hagen Kahl), Бен Кингсли (Geran), Марван Кензари (Matthias), Александр Йованович (Jonas), Кристиан Перерсен (Kay), Эрдал Йильдиз (Rainer), Клеменс Шик (Mirko), Джонни Пальмьеро (Fitch), Бен Хеккер (Filling Station Clerk), Йоахим Круль (Wolfgang)
Описание:
Американский турист Кейси Штайн, путешествуя с подругой по Европе, оказывается втянутым в разборки между двумя враждующими мафиозными группировками. Одну из них возглавляет Хаген, другую - Геран. И с этого момента начинается смертельно опасная гонка на запредельной скорости по автобанам Германии.
Рейтинг:

MPAA: PG-13 - Детям до 13 лет просмотр не желателен
Качество: BDRip 1080p
Формат: MKV
Видео: AVC, 1920x800 (2.40:1), 16.0 Mbit/s, 23,976 fps, 0,434 bpp
Аудио №1: русский / AC3 / 5.1 / 48 kHz / 384 kbps / |Дубляж, iTunes|
Аудио №2: английский / DTS / 5.1 / 48 kHz / 1509 kbps / 16 bit
Навигация по главам: есть
Релиз от:
General
Unique ID : 203427567286295042874335008041280234741 (0x990AB96E05A1C98DB39ECAEB5A1064F5)
Complete name : C:\Collide.2016.BDRip.1080p.ExKinoRay.mkv
Format : Matroska
Format version : Version 4 / Version 2
File size : 12.3 GiB
Duration : 1 h 38 min
Overall bit rate : 17.9 Mb/s
Encoded date : UTC 2017-05-15 20:22:52
Writing application : mkvmerge v11.0.0 ('Alive') 64bit
Writing library : libebml v1.3.4 + libmatroska v1.4.5

Video
ID : 1
Format : AVC
Format/Info : Advanced Video Codec
Format profile : High@L4.1
Format settings, CABAC : Yes
Format settings, ReFrames : 5 frames
Codec ID : V_MPEG4/ISO/AVC
Duration : 1 h 38 min
Bit rate : 16.0 Mb/s
Width : 1 920 pixels
Height : 800 pixels
Display aspect ratio : 2.40:1
Frame rate mode : Constant
Frame rate : 23.976 (24000/1001) FPS
Color space : YUV
Chroma subsampling : 4:2:0
Bit depth : 8 bits
Scan type : Progressive
Bits/(Pixel*Frame) : 0.434
Stream size : 11.0 GiB (89%)
Writing library : x264 core 142 r2431+42 c69a006 tMod [8-bit@all X86_64]
Encoding settings : cabac=1 / ref=5 / deblock=1:-3:-3 / analyse=0x3:0x113 / me=umh / subme=11 / psy=1 / fade_compensate=0.00 / psy_rd=1.08:1.05 / mixed_ref=1 / me_range=48 / chroma_me=1 / trellis=2 / 8x8dct=1 / cqm=0 / deadzone=21,11 / fast_pskip=0 / chroma_qp_offset=-4 / threads=16 / lookahead_threads=2 / sliced_threads=0 / nr=0 / decimate=0 / interlaced=0 / bluray_compat=0 / constrained_intra=0 / fgo=0 / bframes=8 / b_pyramid=2 / b_adapt=2 / b_bias=0 / direct=3 / weightb=1 / open_gop=0 / weightp=2 / keyint=240 / keyint_min=23 / scenecut=40 / intra_refresh=0 / rc_lookahead=150 / rc=2pass / mbtree=0 / bitrate=16000 / ratetol=1.0 / qcomp=0.70 / qpmin=0:0:0 / qpmax=69:69:69 / qpstep=4 / cplxblur=20.0 / qblur=0.5 / vbv_maxrate=62500 / vbv_bufsize=78125 / nal_hrd=none / filler=0 / ip_ratio=1.30 / pb_ratio=1.20 / aq=2:0.80 / aq-sensitivity=10.00 / aq-factor=1.00:1.00:1.00 / aq2=0 / aq3=0
Default : Yes
Forced : No
Color range : Limited
Color primaries : BT.709
Transfer characteristics : BT.709
Matrix coefficients : BT.709

Audio #1
ID : 2
Format : AC-3
Format/Info : Audio Coding 3
Format settings, Endianness : Big
Codec ID : A_AC3
Duration : 1 h 38 min
Bit rate mode : Constant
Bit rate : 384 kb/s
Channel(s) : 6 channels
Channel positions : Front: L C R, Side: L R, LFE
Sampling rate : 48.0 kHz
Frame rate : 31.250 FPS (1536 spf)
Bit depth : 16 bits
Compression mode : Lossy
Stream size : 271 MiB (2%)
Title : iTunes
Language : Russian
Service kind : Complete Main
Default : Yes
Forced : No

Audio #2
ID : 3
Format : DTS
Format/Info : Digital Theater Systems
Mode : 16
Format settings, Endianness : Big
Codec ID : A_DTS
Duration : 1 h 38 min
Bit rate mode : Constant
Bit rate : 1 509 kb/s
Channel(s) : 6 channels
Channel positions : Front: L C R, Side: L R, LFE
Sampling rate : 48.0 kHz
Frame rate : 93.750 FPS (512 spf)
Bit depth : 16 bits
Compression mode : Lossy
Stream size : 1.04 GiB (8%)
Title : Original
Language : English
Default : No
Forced : No

Text
ID : 4
Format : UTF-8
Codec ID : S_TEXT/UTF8
Codec ID/Info : UTF-8 Plain Text
Duration : 1 h 29 min
Bit rate : 39 b/s
Count of elements : 766
Stream size : 25.5 KiB (0%)
Title : Original
Language : English
Default : No
Forced : No

Menu
00:00:00.000 : en:00:00:00.000
00:10:29.712 : en:00:10:29.712
00:19:13.944 : en:00:19:13.944
00:26:06.565 : en:00:26:06.565
00:35:39.054 : en:00:35:39.054
00:46:35.710 : en:00:46:35.710
00:58:15.200 : en:00:58:15.200
01:10:06.577 : en:01:10:06.577
01:18:05.848 : en:01:18:05.848
01:28:32.766 : en:01:28:32.766
pb.wtf



Скачать Автобан через торрент http://i4.imageban.ru/out/2017/05/15/2d84e9814382a636e53e0b144a65f2e1.jpg Скачать фильм Автобан через торрент бесплантно в хорошем качестве Описание: Американский турист Кейси Штайн, путешествуя с подругой по Европе, оказывается втянутым в разборки между двумя враждующими ... 9.8 10 8
Info! Золотая раздача, скачанное не засчитывается.
Торрент: Зарегистрирован [2017-05-16 05:38] · скачан: 163 раз
Статус: √ проверено
Размер: 12.33 GB
Как cкачать? Как скачать Автобан через торрент | qTorrent

% Раздел Тема Автор DL S | L
Фильмы 2016 [DVDrip, WEB-DLRip, HDrip] (DUB, MVO) [ 1.42 GB ] Автобан / Collide [2016 HDRip-AVC] bober100 Скачать
1 | 0
Фильмы 2016 [DVDrip, WEB-DLRip, HDrip] (DUB, MVO) [ 2.35 GB ] Автобан / Collide [2016 BDRip-AVC] bober100 Скачать
3 | 0
Фильмы (Blu-ray, BD-Remux, HDDVD) [ 28.15 GB ] Автобан / Collide [2016 BD Remux 1080p] bober100 Скачать
1 | 0
Фильмы [HD 720p, 1080p] (Хороший звук DUB, MVO) [ 6.6 GB ] Автобан / Collide [2016 BDRip 720p] - -Lexx- Скачать
1 | 0
Фильмы (HD 720p, 1080p) (48-60 fps) [ 11.62 GB ] Автобан / Collide [2016 BDRip 1080p] [60fps] killermax2013 Скачать
1 | 0
Фильмы с украинским озвучиванием [ 1.42 GB ] Автобан / Collide [2016 BDRip] [Ukr DUB] killermax2013 Скачать
1 | 0
Фильмы (Blu-ray, BD-Remux, HDDVD) [ 31.86 GB ] Автобан / Collide [2016 BD Remux ] Бумер Скачать
1 | 0

28-11-2019 20:33  

Отключить всю рекламу на сайте

    Дорогой пользователь! Огромная просьба, поблагодарите релизера, оцените раздачу и оставьте свои комментарий, если Вы скачали Автобан через торрент бесплатно! Внесите свою лепту в развитие PiratBit!
    Комментировать посты могут только пользователи прошедшие не сложную регистрацию
    Показать сообщения:    

    Автобан через торрент
    Скачать бесплатно Автобан
    Автобан скачать торрент
    Автобан смотреть онлайн
    Cкачать фильм Автобан бесплатно
    Автобан скачать торрент в хорошем качестве
    Автобан смотреть онлайн бесплатно в хорошем качестве


    Вы не можете начинать темы
    Вы не можете отвечать на сообщения
    Вы не можете редактировать свои сообщения
    Вы не можете удалять свои сообщения
    Вы не можете голосовать в опросах
    Вы не можете прикреплять файлы к сообщениям
    Вы можете скачивать файлы