Ссылка на приватное зеркало нашего сайта всего за 1$. Внимание количество ограничено!!!

2 сезон

iTunes

1 сезон

1

iTunes

iTunes

iTunes

1 сезон

RePack

30

ИГРА 18+

pack

ВАЖНО

!!Акция!!

Alien_RageХит недели

RePack

MK11
pack

Забери бонус

RePack

jed

!!Акция!!

Alien_Rage

RePack

fifa19

RePack

Assassins Creed: Odyssey

RePack

NEED FOR SPEED™ PAYBACK

4 сезон

9 сезон

Бесстыжие 9 сезон

Все сериалы

все сериалы на PB.wtf

RePack

FAR CRY 5
  

Арес / Arès (Жан-Патрик Бенес) [2016, фантастика, триллер, драма, BDRip 1080p] MVO [Oфициальный звук] pb.wtf

Арес через торрент pb.wtf

Размер: 6.47 GB | Добавлен: 3 года 5 мес. назад | Торрент скачан:202 раза
Скачать  

16-05-2017 06:13 Арес Скачать торрент  

Арес / Arès

Год выпуска: 2016
Страна: Франция
Жанр: фантастика, триллер, драма

Продолжительность: 01:20:21
Перевод: Профессиональный многоголосый [официальный звук]
Примечание: Релиз без рекламы
Субтитры: английские
Режиссер: Жан-Патрик Бенес
В ролях: Ола Рапас (Arès), Миша Лекот (Myosotis), Тьерри Анкиссе (Coach), Элен Фийер (Altman), Рут Вега Фернандез (Anna), Eva Lallier (Anouk), Луи-До де Ланкесэ (PDG Donevia), Элина Соломон (Mae), Ивон Мартин (Tyro), Пьер Перрье (Boris), Эмили Гавуа-Кан (Carla), Джо Престиа (Zito)
Описание:
В ближайшем будущем мировой порядок изменился. Благодаря 10 миллионам безработных граждан Франция стала теперь бедной страной. Ее народ стремится устроить революцию, и власти, пытаясь отвлечь гнев от себя, находят выход в форме телевизионных трансляций жестоких боев, в которых игроки, накачанные стимуляторами, бьются на смерть.
Рейтинг:

Качество: BDRip 1080p
Формат: MKV
Видео: AVC, 1920x800 (2.40:1), 10501 kbps, 24 fps, 0,285 bpp
Аудио №1: русский / AC3 / 2.0 / 48 kHz / 384 kbps / |MVO|
Аудио №2: французский / AC3 / 5.1 / 48 kHz / 640 kbps /
Навигация по главам: есть

General
Unique ID : 244854305778087313859357828593297683144 (0xB8353954DA949B9DA6E7E782972872C8)
Complete name : E:\Арес [Ares] 2016 [BDRip-1080p].mkv
Format : Matroska
Format version : Version 2
File size : 6.47 GiB
Duration : 1 h 20 min
Overall bit rate : 11.5 Mb/s
Encoded date : UTC 2017-05-13 23:54:17
Writing application : mkvmerge v7.8.0 ('River Man') 32bit built on Apr 3 2015 12:11:22
Writing library : libebml v1.3.1 + libmatroska v1.4.2

Video
ID : 1
Format : AVC
Format/Info : Advanced Video Codec
Format profile : High@L4.1
Format settings, CABAC : Yes
Format settings, ReFrames : 5 frames
Codec ID : V_MPEG4/ISO/AVC
Duration : 1 h 20 min
Bit rate : 10.5 Mb/s
Width : 1 920 pixels
Height : 800 pixels
Display aspect ratio : 2.40:1
Frame rate mode : Constant
Frame rate : 24.000 FPS
Color space : YUV
Chroma subsampling : 4:2:0
Bit depth : 8 bits
Scan type : Progressive
Bits/(Pixel*Frame) : 0.285
Stream size : 5.77 GiB (89%)
Writing library : x264 core 148 r2744 b97ae06
Encoding settings : cabac=1 / ref=5 / deblock=1:-2:-1 / analyse=0x3:0x133 / me=umh / subme=10 / psy=1 / psy_rd=1.00:1.50 / mixed_ref=1 / me_range=24 / chroma_me=1 / trellis=2 / 8x8dct=1 / cqm=0 / deadzone=21,11 / fast_pskip=1 / chroma_qp_offset=-4 / threads=25 / lookahead_threads=4 / sliced_threads=0 / nr=0 / decimate=0 / interlaced=0 / bluray_compat=0 / constrained_intra=0 / bframes=8 / b_pyramid=0 / b_adapt=2 / b_bias=0 / direct=3 / weightb=1 / open_gop=0 / weightp=2 / keyint=230 / keyint_min=23 / scenecut=288 / intra_refresh=0 / rc_lookahead=60 / rc=2pass / mbtree=1 / bitrate=10501 / ratetol=1.0 / qcomp=0.90 / qpmin=3 / qpmax=69 / qpstep=4 / cplxblur=20.0 / qblur=0.5 / ip_ratio=1.40 / aq=1:1.00
Language : English
Default : Yes
Forced : No
Color range : Limited
Color primaries : BT.709
Transfer characteristics : BT.709
Matrix coefficients : BT.709

Audio #1
ID : 2
Format : AC-3
Format/Info : Audio Coding 3
Mode extension : CM (complete main)
Format settings, Endianness : Big
Codec ID : A_AC3
Duration : 1 h 20 min
Bit rate mode : Constant
Bit rate : 384 kb/s
Channel(s) : 2 channels
Channel positions : Front: L R
Sampling rate : 48.0 kHz
Frame rate : 31.250 FPS (1536 spf)
Compression mode : Lossy
Stream size : 221 MiB (3%)
Language : Russian
Default : Yes
Forced : No

Audio #2
ID : 3
Format : AC-3
Format/Info : Audio Coding 3
Mode extension : CM (complete main)
Format settings, Endianness : Big
Codec ID : A_AC3
Duration : 1 h 20 min
Bit rate mode : Constant
Bit rate : 640 kb/s
Channel(s) : 6 channels
Channel positions : Front: L C R, Side: L R, LFE
Sampling rate : 48.0 kHz
Frame rate : 31.250 FPS (1536 spf)
Compression mode : Lossy
Stream size : 368 MiB (6%)
Language : French
Default : No
Forced : No

Text
ID : 4
Format : UTF-8
Codec ID : S_TEXT/UTF8
Codec ID/Info : UTF-8 Plain Text
Language : English
Default : No
Forced : No

Menu
00:00:00.000 : en:00:00:00.000
00:07:07.875 : en:00:07:07.875
00:12:09.250 : en:00:12:09.250
00:17:55.000 : en:00:17:55.000
00:26:54.583 : en:00:26:54.583
00:35:07.250 : en:00:35:07.250
00:43:31.500 : en:00:43:31.500
00:47:58.875 : en:00:47:58.875
00:55:18.250 : en:00:55:18.250
01:01:27.500 : en:01:01:27.500
01:06:21.667 : en:01:06:21.667
01:11:45.500 : en:01:11:45.500
pb.wtf



Скачать Арес через торрент http://i2.imageban.ru/out/2017/05/16/ebd4f67cb60ae58c2e2af3df329146f6.jpg Скачать фильм Арес через торрент бесплантно в хорошем качестве Описание: В ближайшем будущем мировой порядок изменился. Благодаря 10 миллионам безработных граждан Франция стала теперь бедной страной. Ее ... 10 10 6
Торрент: Зарегистрирован [2017-05-16 06:13] · скачан: 202 раз
Статус: T временная
Размер: 6.47 GB
Как cкачать? Как скачать Арес через торрент | qTorrent

% Раздел Тема Автор DL S | L
T R.G. Resident & PiratVoice - Фильмы, Видео [ 1.46 GB ] Арес / Arès [2016 BDRip-AVC от R.G. Resident] MVO [Oфициальный звук / Кинопремьера HD] -Lexx- Скачать
1 | 0
T Фильмы 2016 [DVDrip, WEB-DLRip, HDrip] (DUB, MVO) [ 1.42 GB ] Арес / Arès [2016 BDRip] MVO [Oфициальный звук] -Lexx- Скачать
1 | 0

28-11-2019 20:33  

Отключить всю рекламу на сайте

    Дорогой пользователь! Огромная просьба, поблагодарите релизера, оцените раздачу и оставьте свои комментарий, если Вы скачали Арес через торрент бесплатно! Внесите свою лепту в развитие PiratBit!
    Комментировать посты могут только пользователи прошедшие не сложную регистрацию
    Показать сообщения:    

    Арес через торрент
    Скачать бесплатно Арес
    Арес скачать торрент
    Арес смотреть онлайн
    Cкачать фильм Арес бесплатно
    Арес скачать торрент в хорошем качестве
    Арес смотреть онлайн бесплатно в хорошем качестве


    Вы не можете начинать темы
    Вы не можете отвечать на сообщения
    Вы не можете редактировать свои сообщения
    Вы не можете удалять свои сообщения
    Вы не можете голосовать в опросах
    Вы не можете прикреплять файлы к сообщениям
    Вы можете скачивать файлы