Ссылка на приватное зеркало нашего сайта всего за 1$. Внимание количество ограничено!!!

2 сезон

iTunes

1 сезон

1

2 сезон

2 сезон

iTunes

1 сезон

RePack

30

Ultimate

ВАЖНО

ИГРА 18+

pack

RePack

MK11
pack

Забери бонус

RePack

jed

!!Акция!!

Alien_Rage

RePack

fifa19

RePack

Assassins Creed: Odyssey

RePack

NEED FOR SPEED™ PAYBACK

4 сезон

9 сезон

Бесстыжие 9 сезон

Все сериалы

все сериалы на PB.wtf

RePack

FAR CRY 5
  

Арес / Arès (Жан-Патрик Бенес) [2016, фантастика, триллер, драма, BDRip] MVO [Oфициальный звук] pb.wtf

Арес через торрент pb.wtf

Размер: 1.42 GB | Добавлен: 3 года 6 мес. назад | Торрент скачан:362 раза
Скачать  

16-05-2017 06:24 Арес Скачать торрент  

Арес / Arès

Год выпуска: 2016
Страна: Франция
Жанр: фантастика, триллер, драма

Продолжительность: 01:20:21
Перевод: Профессиональный многоголосый [официальный звук] | Кинопремьера HD
Примечание: Релиз без рекламы
Режиссер: Жан-Патрик Бенес
В ролях: Ола Рапас (Arès), Миша Лекот (Myosotis), Тьерри Анкиссе (Coach), Элен Фийер (Altman), Рут Вега Фернандез (Anna), Eva Lallier (Anouk), Луи-До де Ланкесэ (PDG Donevia), Элина Соломон (Mae), Ивон Мартин (Tyro), Пьер Перрье (Boris), Эмили Гавуа-Кан (Carla), Джо Престиа (Zito)
Описание:
В ближайшем будущем мировой порядок изменился. Благодаря 10 миллионам безработных граждан Франция стала теперь бедной страной. Ее народ стремится устроить революцию, и власти, пытаясь отвлечь гнев от себя, находят выход в форме телевизионных трансляций жестоких боев, в которых игроки, накачанные стимуляторами, бьются на смерть.
Рейтинг:

Качество: BDRip
Формат: AVI
Видео: XviD, 720x304 (2.35:1), 2145 kbps, 24 fps, 0,408 bpp
Аудио: AC3 / 2.0 / 48 kHz / 384 kbps /

General
Complete name : E:\Ares.2016.BDRip.1.42Gb.P.MegaPeer.avi
Format : AVI
Format/Info : Audio Video Interleave
File size : 1.42 GiB
Duration : 1 h 20 min
Overall bit rate : 2 539 kb/s
Writing application : VirtualDubMod 1.5.10.2 (build 2540/release)
Writing library : VirtualDubMod build 2540/release

Video
ID : 0
Format : MPEG-4 Visual
Format profile : Advanced Simple@L5
Format settings, BVOP : 1
Format settings, QPel : No
Format settings, GMC : No warppoints
Format settings, Matrix : Custom
Codec ID : XVID
Codec ID/Hint : XviD
Duration : 1 h 20 min
Bit rate : 2 146 kb/s
Width : 720 pixels
Height : 304 pixels
Display aspect ratio : 2.35:1
Frame rate : 24.000 FPS
Color space : YUV
Chroma subsampling : 4:2:0
Bit depth : 8 bits
Scan type : Progressive
Compression mode : Lossy
Bits/(Pixel*Frame) : 0.408
Stream size : 1.20 GiB (85%)
Writing library : XviD 73

Audio
ID : 1
Format : AC-3
Format/Info : Audio Coding 3
Mode extension : CM (complete main)
Format settings, Endianness : Big
Codec ID : 2000
Duration : 1 h 20 min
Bit rate mode : Constant
Bit rate : 384 kb/s
Channel(s) : 2 channels
Channel positions : Front: L R
Sampling rate : 48.0 kHz
Frame rate : 31.250 FPS (1536 spf)
Compression mode : Lossy
Stream size : 220 MiB (15%)
Alignment : Split accross interleaves
Interleave, duration : 42 ms (1.00 video frame)
Interleave, preload duration : 500 ms
pb.wtf



Скачать Арес через торрент http://i4.imageban.ru/out/2017/05/16/272edf762f32d6f41bf1eaa304bf9898.jpg Скачать фильм Арес через торрент бесплантно в хорошем качестве Описание: В ближайшем будущем мировой порядок изменился. Благодаря 10 миллионам безработных граждан Франция стала теперь бедной страной. Ее ... 9.8 10 9
Торрент: Зарегистрирован [2017-05-16 06:24] · скачан: 362 раз
Статус: T временная
Размер: 1.42 GB
Как cкачать? Как скачать Арес через торрент | qTorrent

% Раздел Тема Автор DL S | L
T R.G. Resident & PiratVoice - Фильмы, Видео [ 1.46 GB ] Арес / Arès [2016 BDRip-AVC от R.G. Resident] MVO [Oфициальный звук / Кинопремьера HD] -Lexx- Скачать
1 | 0
T Фильмы [HD 720p, 1080p] (Хороший звук DUB, MVO) [ 6.47 GB ] Арес / Arès [2016 BDRip 1080p] MVO [Oфициальный звук] -Lexx- Скачать
1 | 0

28-11-2019 20:33  

Отключить всю рекламу на сайте

    Дорогой пользователь! Огромная просьба, поблагодарите релизера, оцените раздачу и оставьте свои комментарий, если Вы скачали Арес через торрент бесплатно! Внесите свою лепту в развитие PiratBit!
    Комментировать посты могут только пользователи прошедшие не сложную регистрацию
    Показать сообщения:    

    Арес через торрент
    Скачать бесплатно Арес
    Арес скачать торрент
    Арес смотреть онлайн
    Cкачать фильм Арес бесплатно
    Арес скачать торрент в хорошем качестве
    Арес смотреть онлайн бесплатно в хорошем качестве


    Вы не можете начинать темы
    Вы не можете отвечать на сообщения
    Вы не можете редактировать свои сообщения
    Вы не можете удалять свои сообщения
    Вы не можете голосовать в опросах
    Вы не можете прикреплять файлы к сообщениям
    Вы можете скачивать файлы