Ссылка на приватное зеркало нашего сайта всего за 1$. Внимание количество ограничено!!!

2 сезон

iTunes

1 сезон

1

iTunes

iTunes

iTunes

1 сезон

RePack

30

ИГРА 18+

pack

ВАЖНО

!!Акция!!

Alien_RageХит недели

RePack

MK11
pack

Забери бонус

RePack

jed

!!Акция!!

Alien_Rage

RePack

fifa19

RePack

Assassins Creed: Odyssey

RePack

NEED FOR SPEED™ PAYBACK

4 сезон

9 сезон

Бесстыжие 9 сезон

Все сериалы

все сериалы на PB.wtf

RePack

FAR CRY 5
  

Марс атакует! / Mars Attacks! (Тим Бертон) [1996, фантастика, комедия, BDRip 1080p by msltel] DUB, DVO, 3 x AVO pb.wtf

Марс атакует! через торрент pb.wtf

Размер: 10.68 GB | Добавлен: 3 года 5 мес. назад | Торрент скачан:33 раза
Скачать  

16-05-2017 07:08 Марс атакует! Скачать торрент  

Название: Марс атакует!
Оригинальное название: Mars Attacks!
Год выпуска: 1996
Страна: США
Жанр: фантастика, комедия
Продолжительность: 01:45:49
Перевод: дублированный, профессиональный двухголосый, авторский

Режиссёр: Тим Бертон

В ролях: Пирс Броснан, Дэнни ДеВито, Джек Николсон, Сара Джессика Паркер, Гленн Клоуз, Аннетт Бенинг, Мартин Шорт, Майкл Дж.Фокс, Род Стайгер, Том Джонс

Описание: Наша планета подверглась чудовищному нападению. Марсиане, бесстрастные и бездушные существа, эти маленькие зелёные создания, высаживаются в пустыне со своих космических кораблей, а затем наступают на всех направлениях. Вашингтон, Лас-Вегас и другие города сотрясаются от мощнейших взрывов. Разрушениям нет числа. Президент США призывает командование своих вооружённых сил принять меры, однако мнения самих командующих разделились. «Разбить и вернуть их на Марс!», — считает генерал Деккер. «Заключить мир», — возражает генерал Кейси. Дальнейшие события должны продемонстрировать, кто же из них прав... Фильм снят на основе серии вкладышей из пачек жевательной резинки конца 50-х годов.



Качество: BDRip 1080p
Формат: MKV
Видео: MPEG-4 AVC, 9958 Кбит/с, 1920x796
Аудио 1: русский, AC3, 384 kbps, 6 ch, 48 kHz [дублированный]
Аудио 2: русский, AC3, 448 kbps, 6 ch, 48 kHz [профессиональный двухголосый, Tycoon]
Аудио 3: русский, AC3, 192 kbps, 2 ch, 48 kHz [авторский, Сергей Визгунов]
Аудио 4: русский, DTS, 1509 kbps, 6 ch, 48 kHz [авторский, Юрий Живов]
Аудио 5: русский, AC3, 448 kbps, 6 ch, 48 kHz [авторский, Антон Карповский]
Аудио 6: английский, DTS, 1509 kbps, 6 ch, 48 kHz [оригинал]
Субтитры 1: русские
Субтитры 2: английские (для слабослышащих)
Имеются неименованные главы/чаптеры.
Общее
Уникальный идентификатор : 175627664613992132075095723036837780208 (0x8420A867D3F3B6EE8F512BEC84559AF0)
Полное имя : D:\Video\Марс атакует.1996.BDRip.1080p by msltel.mkv
Формат : Matroska
Версия формата : Version 4 / Version 2
Размер файла : 10,7 Гбайт
Продолжительность : 1 ч. 45 м.
Общий поток : 14,4 Мбит/сек
Название фильма : Rip by msltel
Дата кодирования : UTC 2017-05-16 02:00:01
Программа кодирования : mkvmerge v8.2.0 ('World of Adventure') 64bit
Библиотека кодирования : libebml v1.3.1 + libmatroska v1.4.2

Видео
Идентификатор : 1
Формат : AVC
Формат/Информация : Advanced Video Codec
Профиль формата : High@L4.1
Параметр CABAC формата : Да
Параметр ReFrames формата : 4 кадра
Идентификатор кодека : V_MPEG4/ISO/AVC
Продолжительность : 1 ч. 45 м.
Битрейт : 9958 Кбит/сек
Ширина : 1920 пикселей
Высота : 796 пикселей
Соотношение сторон : 2,40:1
Режим частоты кадров : Постоянный
Частота кадров : 23,976 (24000/1001) кадра/сек
Цветовое пространство : YUV
Субдискретизация насыщенности : 4:2:0
Битовая глубина : 8 бит
Тип развёртки : Прогрессивная
Бит/(Пиксели*Кадры) : 0.272
Размер потока : 7,36 Гбайт (69%)
Библиотека кодирования : x264 core 146 r2538 121396c
Настройки программы : cabac=1 / ref=4 / deblock=1:-3:-2 / analyse=0x3:0x113 / me=umh / subme=11 / psy=1 / psy_rd=1.00:0.15 / mixed_ref=1 / me_range=32 / chroma_me=1 / trellis=2 / 8x8dct=1 / cqm=0 / deadzone=21,11 / fast_pskip=0 / chroma_qp_offset=-3 / threads=6 / lookahead_threads=1 / sliced_threads=0 / nr=0 / decimate=1 / interlaced=0 / bluray_compat=0 / constrained_intra=0 / bframes=9 / b_pyramid=2 / b_adapt=2 / b_bias=0 / direct=1 / weightb=1 / open_gop=0 / weightp=2 / keyint=230 / keyint_min=23 / scenecut=40 / intra_refresh=0 / rc_lookahead=40 / rc=crf / mbtree=0 / crf=17.0 / qcomp=0.60 / qpmin=0 / qpmax=69 / qpstep=4 / vbv_maxrate=62500 / vbv_bufsize=78125 / crf_max=0.0 / nal_hrd=none / filler=0 / ip_ratio=1.40 / pb_ratio=1.30 / aq=1:1.00
Язык : English
Default : Да
Forced : Нет

Аудио #1
Идентификатор : 2
Формат : AC-3
Формат/Информация : Audio Coding 3
Параметр Endianness формата : Big
Идентификатор кодека : A_AC3
Продолжительность : 1 ч. 45 м.
Вид битрейта : Постоянный
Битрейт : 384 Кбит/сек
Каналы : 6 каналов
Расположение каналов : Front: L C R, Side: L R, LFE
Частота : 48,0 КГц
Частота кадров : 31,250 кадров/сек (1536 spf)
Битовая глубина : 16 бит
Метод сжатия : С потерями
Размер потока : 291 Мбайт (3%)
Заголовок : DUB
Язык : Russian
ServiceKind/String : Complete Main
Default : Да
Forced : Нет

Аудио #2
Идентификатор : 3
Формат : AC-3
Формат/Информация : Audio Coding 3
Параметр Endianness формата : Big
Идентификатор кодека : A_AC3
Продолжительность : 1 ч. 45 м.
Вид битрейта : Постоянный
Битрейт : 448 Кбит/сек
Каналы : 6 каналов
Расположение каналов : Front: L C R, Side: L R, LFE
Частота : 48,0 КГц
Частота кадров : 31,250 кадров/сек (1536 spf)
Битовая глубина : 16 бит
Метод сжатия : С потерями
Размер потока : 339 Мбайт (3%)
Заголовок : DVO (Tycoon)
Язык : Russian
ServiceKind/String : Complete Main
Default : Нет
Forced : Нет

Аудио #3
Идентификатор : 4
Формат : AC-3
Формат/Информация : Audio Coding 3
Параметр Endianness формата : Big
Идентификатор кодека : A_AC3
Продолжительность : 1 ч. 45 м.
Вид битрейта : Постоянный
Битрейт : 192 Кбит/сек
Каналы : 2 канала
Расположение каналов : Front: L R
Частота : 48,0 КГц
Частота кадров : 31,250 кадров/сек (1536 spf)
Битовая глубина : 16 бит
Метод сжатия : С потерями
Размер потока : 145 Мбайт (1%)
Заголовок : AVO (Сергей Визгунов)
Язык : Russian
ServiceKind/String : Complete Main
Default : Нет
Forced : Нет

Аудио #4
Идентификатор : 5
Формат : DTS
Формат/Информация : Digital Theater Systems
Режим : 16
Параметр Endianness формата : Big
Идентификатор кодека : A_DTS
Продолжительность : 1 ч. 45 м.
Вид битрейта : Постоянный
Битрейт : 1509 Кбит/сек
Каналы : 6 каналов
Расположение каналов : Front: L C R, Side: L R, LFE
Частота : 48,0 КГц
Частота кадров : 93,750 кадра/сек (512 spf)
Битовая глубина : 24 бит
Метод сжатия : С потерями
Размер потока : 1,12 Гбайт (10%)
Заголовок : AVO (Юрий Живов)
Язык : Russian
Default : Нет
Forced : Нет

Аудио #5
Идентификатор : 6
Формат : AC-3
Формат/Информация : Audio Coding 3
Параметр Endianness формата : Big
Идентификатор кодека : A_AC3
Продолжительность : 1 ч. 45 м.
Вид битрейта : Постоянный
Битрейт : 448 Кбит/сек
Каналы : 6 каналов
Расположение каналов : Front: L C R, Side: L R, LFE
Частота : 48,0 КГц
Частота кадров : 31,250 кадров/сек (1536 spf)
Битовая глубина : 16 бит
Метод сжатия : С потерями
Размер потока : 339 Мбайт (3%)
Заголовок : AVO (Антон Карповский)
Язык : Russian
ServiceKind/String : Complete Main
Default : Нет
Forced : Нет

Аудио #6
Идентификатор : 7
Формат : DTS
Формат/Информация : Digital Theater Systems
Режим : 16
Параметр Endianness формата : Big
Идентификатор кодека : A_DTS
Продолжительность : 1 ч. 45 м.
Вид битрейта : Постоянный
Битрейт : 1509 Кбит/сек
Каналы : 6 каналов
Расположение каналов : Front: L C R, Side: L R, LFE
Частота : 48,0 КГц
Частота кадров : 93,750 кадра/сек (512 spf)
Битовая глубина : 24 бит
Метод сжатия : С потерями
Размер потока : 1,11 Гбайт (10%)
Заголовок : original
Язык : English
Default : Нет
Forced : Нет

Текст #1
Идентификатор : 8
Формат : UTF-8
Идентификатор кодека : S_TEXT/UTF8
Идентификатор кодека/Информация : UTF-8 Plain Text
Продолжительность : 1 ч. 38 м.
Битрейт : 58 бит/сек
ElementCount : 1047
Размер потока : 42,3 Кбайт (0%)
Заголовок : русские
Язык : Russian
Default : Нет
Forced : Нет

Текст #2
Идентификатор : 9
Формат : UTF-8
Идентификатор кодека : S_TEXT/UTF8
Идентификатор кодека/Информация : UTF-8 Plain Text
Продолжительность : 1 ч. 45 м.
Битрейт : 46 бит/сек
ElementCount : 1152
Размер потока : 36,2 Кбайт (0%)
Заголовок : английские (для слабослышащих)
Язык : English
Default : Нет
Forced : Нет

Меню
00:00:00.000 : en:Chapter 01
00:01:24.834 : en:Chapter 02
00:04:01.824 : en:Chapter 03
00:06:41.192 : en:Chapter 04
00:09:19.558 : en:Chapter 05
00:12:40.009 : en:Chapter 06
00:17:31.800 : en:Chapter 07
00:21:02.135 : en:Chapter 08
00:24:05.443 : en:Chapter 09
00:26:42.309 : en:Chapter 10
00:27:33.401 : en:Chapter 11
00:29:00.363 : en:Chapter 12
00:35:25.123 : en:Chapter 13
00:43:25.268 : en:Chapter 14
00:45:12.501 : en:Chapter 15
00:46:37.002 : en:Chapter 16
00:47:52.035 : en:Chapter 17
00:51:44.226 : en:Chapter 18
00:55:23.695 : en:Chapter 19
00:57:46.087 : en:Chapter 20
00:58:30.215 : en:Chapter 21
00:59:44.872 : en:Chapter 22
01:04:31.784 : en:Chapter 23
01:07:28.794 : en:Chapter 24
01:10:59.171 : en:Chapter 25
01:12:33.515 : en:Chapter 26
01:15:22.975 : en:Chapter 27
01:17:42.658 : en:Chapter 28
01:19:36.313 : en:Chapter 29
01:20:58.103 : en:Chapter 30
01:23:35.969 : en:Chapter 31
01:25:24.911 : en:Chapter 32
01:27:09.307 : en:Chapter 33
01:30:17.120 : en:Chapter 34
01:30:49.777 : en:Chapter 35
01:33:58.506 : en:Chapter 36
01:35:57.084 : en:Chapter 37
01:40:03.038 : en:Chapter 38
pb.wtf



Скачать Марс атакует! через торрент http://s018.radikal.ru/i515/1705/82/53afd157506c.jpg Скачать фильм Марс атакует! через торрент бесплантно в хорошем качестве Описание: Наша планета подверглась чудовищному нападению. Марсиане, бесстрастные и бездушные существа, эти маленькие зелёные создания, ... 10 10 7
Info! Золотая раздача, скачанное не засчитывается.
Торрент: Зарегистрирован [2017-05-16 07:08] · скачан: 33 раз
Статус: √ проверено
Размер: 10.68 GB
Как cкачать? Как скачать Марс атакует! через торрент | qTorrent

% Раздел Тема Автор DL S | L
Фильмы [HD 720p, 1080p] (Хороший звук DUB, MVO) [ 4.84 GB ] Марс атакует! / Mars Attacks! [1996 BDRip 720p by msltel] DUB DVO 3 x AVO msltel Скачать
1 | 0

28-11-2019 20:33  

Отключить всю рекламу на сайте

    Дорогой пользователь! Огромная просьба, поблагодарите релизера, оцените раздачу и оставьте свои комментарий, если Вы скачали Марс атакует! через торрент бесплатно! Внесите свою лепту в развитие PiratBit!
    Комментировать посты могут только пользователи прошедшие не сложную регистрацию
    Показать сообщения:    

    Марс атакует! через торрент
    Скачать бесплатно Марс атакует!
    Марс атакует! скачать торрент
    Марс атакует! смотреть онлайн
    Cкачать фильм Марс атакует! бесплатно
    Марс атакует! скачать торрент в хорошем качестве
    Марс атакует! смотреть онлайн бесплатно в хорошем качестве


    Вы не можете начинать темы
    Вы не можете отвечать на сообщения
    Вы не можете редактировать свои сообщения
    Вы не можете удалять свои сообщения
    Вы не можете голосовать в опросах
    Вы не можете прикреплять файлы к сообщениям
    Вы можете скачивать файлы