новый адрес
Мега распродажа FORZA HORIZON 4 ULTIMATE+ВСЕ DLC+ОНЛАЙН всего за 499р. 349 руб. (супер цена). Внимание количество ограничено!!!

iTunes

1+1

iTunes

мы

iTunes

1

iTunes

Чернобыль

iTunes

Ральф против интернета

Лицензия

ПШазам

Лицензия

Оно 2

Лицензия

30
pack

ВАЖНО

!!Акция!!

Alien_RageХит недели

RePack

Resident Evil 21

ИГРА 18+

pack

RePack

Metro:Exodus

!!Акция!!

Alien_Rage

RePack

fifa19

RePack

Assassins Creed: Odyssey

RePack

NEED FOR SPEED™ PAYBACK

3 сезон

9 сезон

Бесстыжие 9 сезон

Все сериалы

все сериалы на PB.wtf

RePack

FAR CRY 5
Ребята, катастрофически не хватает 1900р. для оплаты серверов за Октябрь (всвязи с блокировками трафик упал в 3 раза), 1-2р., выручайте.
  

Удивительное воскресенье (Ченек Дуба) [1957, СССР, Чехословакия, детский, приключения, SATRip от AVP Studio] pb.wtf

Удивительное воскресенье через торрент pb.wtf

Размер: 1.09 GB | Добавлен: 2 года 6 мес. назад | Торрент скачан:2 раза
Скачать  

16-05-2017 07:34 Удивительное воскресенье Скачать торрент  

Удивительное воскресенье
Страна: СССР
Производство: Barrandov Studios, Киностудия им. М.Горького

Жанр: детский, приключения
Год выпуска: 1957
Продолжительность: 01:10:36

Перевод: Не требуется
Cубтитры: нет
Оригинальная аудиодорожка: русский

Режиссер: Ченек Дуба

В ролях:
Томаш Седлачек, Вова Силуянов, Николай Крючков, Яна Дитетова, Мирослав Душан Гомола, Марк Бернес, Василий Нещипленко, Юрий Саранцев, Эльза Леждей, Лилия Юдина, Юрий Легков...
Об актёрах подробней

Описание:
Рано утром 28 июня 1957 года пражские пионеры провожали своих соотечественников в Москву на открытие VI Всемирного фестиваля молодёжи. Среди пионеров был и школьник Пепичек. Случайно Пепичек оказался пассажиром ТУ-104. Обнаружив «зайца», команда самолёта решила доставить мальчика в Прагу вечерним рейсом. В Москве, чтобы не тратить драгоценного времени, Пепичек отправился гулять по праздничным улицам и площадям. Сколько интересного увидел он здесь!

Источник: DVB
Качество видео: SATRip
Формат видео: AVI

Видео: 704x528 (4:3), 25 fps, XviD ~ 2009 kbps avg, 0.216 bit/pixel
Аудио: 48 kHz, Dolby Digital AC3 2.0, 192 kbps

Раздача от:
Общее
Полное имя : Udivitelnoe.voskresene.1957.SATRip_[New-team]_by_AVP_Studio.avi
Формат : AVI
Формат/Информация : Audio Video Interleave
Размер файла : 1,09 Гбайт
Продолжительность : 1 ч. 10 м.
Общий поток : 2210 Кбит/сек
Программа кодирования : VirtualDubMod 1.5.10.3 | www.virtualdub-fr.org || (build 2550/release)
Библиотека кодирования : VirtualDubMod build 2550/release

Видео
Идентификатор : 0
Формат : MPEG-4 Visual
Профиль формата : Advanced Simple@L5
Параметр BVOP формата : 1
Параметр QPel формата : Нет
Параметр GMC формата : Без точки перехода
Параметр матрицы формата : Выборочная
Идентификатор кодека : XVID
Идентификатор кодека/Подсказка : XviD
Продолжительность : 1 ч. 10 м.
Битрейт : 2009 Кбит/сек
Ширина : 704 пикселя
Высота : 528 пикселей
Соотношение сторон : 4:3
Частота кадров : 25,000 кадров/сек
Цветовое пространство : YUV
Субдискретизация насыщенности : 4:2:0
Битовая глубина : 8 бит
Тип развёртки : Прогрессивная
Метод сжатия : С потерями
Бит/(Пиксели*Кадры) : 0.216
Размер потока : 1014 Мбайт (91%)
Библиотека кодирования : XviD 73

Аудио
Идентификатор : 1
Формат : AC-3
Формат/Информация : Audio Coding 3
Параметр Endianness формата : Big
Идентификатор кодека : 2000
Продолжительность : 1 ч. 10 м.
Вид битрейта : Постоянный
Битрейт : 192 Кбит/сек
Каналы : 2 канала
Расположение каналов : Front: L R
Частота : 48,0 КГц
Частота кадров : 31,250 кадров/сек (1536 spf)
Битовая глубина : 16 бит
Метод сжатия : С потерями
Размер потока : 97,0 Мбайт (9%)
Выравнивание : Разделение по промежуткам
Продолжительность промежутка : 40 мс. (1,00 видеокадр)
Время предзагрузки промежутка : 500 мс
pb.wtf



Скачать Удивительное воскресенье через торрент http://s41.radikal.ru/i094/1705/86/f2ff1b1a6d17.png Скачать фильм Удивительное воскресенье через торрент бесплантно в хорошем качестве Описание:Рано утром 28 июня 1957 года пражские пионеры провожали своих соотечественников в Москву на открытие VI Всемирного фестиваля ... 10 10 1
Info! Золотая раздача, скачанное не засчитывается.
Торрент: Зарегистрирован [2017-05-16 07:34] · скачан: 2 раз
Статус: √ проверено
Размер: 1.09 GB
Как cкачать? Как скачать Удивительное воскресенье через торрент | qTorrent

% Раздел Тема Автор DL S | L
Кино СССР [ 1.09 GB ] Удивительное воскресенье [1957 СССР Чехословакия детский SATRip-AVC от AVP Studio] AVP Studio Скачать
1 | 0
Кино СССР [ 762 MB ] Удивительное воскресенье [1957 СССР Чехословакия детский SATRip от AVP Studio] AVP Studio Скачать
1 | 0


>> Регистрируемся здесь <<






Отзывы и комментарии о схеме читаем и пишем здесь: ---> Отзывы и комментарии о схеме

Новые благодарочки в телеграм довольных пользователей:
скриншот   скриншот   скриншот   скриншот   скриншот
    Дорогой пользователь! Огромная просьба, поблагодарите релизера, оцените раздачу и оставьте свои комментарий, если Вы скачали Удивительное воскресенье через торрент бесплатно! Внесите свою лепту в развитие PiratBit!
    Комментировать посты могут только пользователи прошедшие не сложную регистрацию
    Показать сообщения:    

    Удивительное воскресенье через торрент
    Скачать бесплатно Удивительное воскресенье
    Удивительное воскресенье скачать торрент
    Удивительное воскресенье смотреть онлайн
    Cкачать фильм Удивительное воскресенье бесплатно
    Удивительное воскресенье скачать торрент в хорошем качестве
    Удивительное воскресенье смотреть онлайн бесплатно в хорошем качестве


    Вы не можете начинать темы
    Вы не можете отвечать на сообщения
    Вы не можете редактировать свои сообщения
    Вы не можете удалять свои сообщения
    Вы не можете голосовать в опросах
    Вы не можете прикреплять файлы к сообщениям
    Вы можете скачивать файлы